<?xml version="1.0" standalone="no"?>
<!DOCTYPE svg PUBLIC "-//W3C//DTD SVG 1.1//EN" "http://www.w3.org/Graphics/SVG/1.1/DTD/svg11.dtd" >
<svg xmlns="http://www.w3.org/2000/svg" xmlns:xlink="http://www.w3.org/1999/xlink" version="1.1">
<metadata>
Created by FontForge 20201107 at Tue May 24 20:52:01 2016
 By 
Copyright (c) 2015, Cadson Demak (info@cadsondemak.com)
</metadata>
<defs>
<font id="Prompt-SemiBold" horiz-adv-x="0" >
  <font-face 
    font-family="Prompt SemiBold"
    font-weight="600"
    font-stretch="normal"
    units-per-em="1000"
    panose-1="0 0 7 0 0 0 0 0 0 0"
    ascent="750"
    descent="-250"
    x-height="480"
    cap-height="699"
    bbox="-648 -391 1327 1087"
    underline-thickness="50"
    underline-position="-100"
    unicode-range="U+000D-FB02"
  />
<missing-glyph horiz-adv-x="500" 
d="M33 714h433v-714h-433v714zM379 78v557h-258v-557h258z" />
    <glyph glyph-name="fi" unicode="fi" horiz-adv-x="638" 
d="M81 371h-69v109h69v68q0 62 28 106.5t76.5 67t108.5 22.5q52 0 90 -16v-121q-29 13 -61 13q-45 0 -68 -21.5t-23 -62.5v-56h348v-480h-151v371h-197v-371h-151v371zM444.5 577q-23.5 23 -23.5 58q0 34 24 57.5t58 23.5q35 0 59 -23.5t24 -57.5q0 -35 -24 -58t-59 -23
t-58.5 23z" />
    <glyph glyph-name="fl" unicode="fl" horiz-adv-x="635" 
d="M81 371h-69v109h69v71q0 92 60 142.5t153 50.5q52 0 90 -16v-121q-29 13 -61 13q-43 0 -67 -20.5t-24 -60.5v-59h199v235h151v-715h-151v371h-199v-371h-151v371z" />
    <glyph glyph-name="ru_lakkhangyaothai" unicode="&#xe24;&#xe45;" horiz-adv-x="898" 
d="M450 322q0 110 -116 110q-43 0 -77 -12t-62 -39l39 -64v-157q0 -24 11 -34t36 -10h50v-116h-133q-56 0 -86 32t-30 87v200l-50 85q117 146 302 146q89 0 154 -30q23 12 64 21t78 9q106 0 160.5 -56t54.5 -162v-528h-151v529q0 51 -22.5 75t-77.5 24q-9 0 -14 -1
q21 -42 21 -97v-530h-151v518z" />
    <glyph glyph-name="lu_lakkhangyaothai" unicode="&#xe26;&#xe45;" horiz-adv-x="909" 
d="M461 322q0 110 -116 110q-81 0 -135 -48l55 -67v-197q0 -56 -30 -88t-86 -32h-117v116h40q24 0 32.5 9t8.5 34v160l-70 85q53 70 129.5 108t173.5 38q88 0 153 -30q23 12 64 21t78 9q106 0 160.5 -56t54.5 -162v-528h-151v529q0 51 -22.5 75t-77.5 24q-9 0 -13 -1
q21 -42 21 -97v-530h-152v518z" />
    <glyph glyph-name=".notdef" horiz-adv-x="500" 
d="M33 714h433v-714h-433v714zM379 78v557h-258v-557h258z" />
    <glyph glyph-name=".null" horiz-adv-x="500" 
 />
    <glyph glyph-name="nonmarkingreturn" unicode="&#xd;" horiz-adv-x="260" 
 />
    <glyph glyph-name="space" unicode=" " horiz-adv-x="350" 
 />
    <glyph glyph-name="exclam" unicode="!" horiz-adv-x="229" 
d="M41 699h148v-480h-148v480zM56 8.5q-24 23.5 -24 57.5t24 57.5t59 23.5q34 0 58 -23.5t24 -57.5t-24 -57.5t-58 -23.5q-35 0 -59 23.5z" />
    <glyph glyph-name="quotedbl" unicode="&#x22;" horiz-adv-x="355" 
d="M32 699h112v-199h-112v199zM210 699h112v-199h-112v199z" />
    <glyph glyph-name="numbersign" unicode="#" horiz-adv-x="773" 
d="M119 149h-87v115h119l42 147h-118v114h150l49 174h135l-49 -174h165l49 174h136l-49 -174h80v-114h-112l-42 -147h111v-115h-143l-42 -149h-136l42 149h-165l-42 -149h-135zM451 264l42 147h-165l-42 -147h165z" />
    <glyph glyph-name="dollar" unicode="$" horiz-adv-x="568" 
d="M232 -14q-56 2 -107.5 13t-84.5 28v109q89 -43 192 -48v222q-98 40 -142 89t-44 122t50 123.5t136 64.5v93h108v-90q81 -6 151 -37v-106q-76 37 -151 41v-217q67 -29 107 -57t60 -65t20 -90q0 -78 -47 -127t-140 -63v-94h-108v89zM232 596q-51 -22 -51 -75
q0 -28 12 -46.5t39 -33.5v155zM390 182q0 27 -12 45.5t-38 33.5v-157q50 24 50 78z" />
    <glyph glyph-name="percent" unicode="%" horiz-adv-x="892" 
d="M126 371.5q-42 24.5 -66.5 66.5t-24.5 92t24.5 92.5t66.5 67t92 24.5t92.5 -24.5t67 -67t24.5 -92.5t-24.5 -92t-67 -66.5t-92.5 -24.5t-92 24.5zM566 699h151l-387 -699h-151zM277.5 468.5q23.5 23.5 23.5 58.5q0 36 -23.5 60t-59.5 24q-35 0 -58.5 -24t-23.5 -60
q0 -34 24 -58t58 -24q36 0 59.5 23.5zM583 9.5q-42 24.5 -66.5 66.5t-24.5 92t24.5 92.5t66.5 67t92 24.5t92.5 -24.5t67 -67t24.5 -92.5t-24.5 -92t-67 -66.5t-92.5 -24.5t-92 24.5zM733.5 106.5q23.5 23.5 23.5 58.5q0 36 -23.5 60t-59.5 24q-35 0 -58.5 -24t-23.5 -60
q0 -34 24 -58t58 -24q36 0 59.5 23.5z" />
    <glyph glyph-name="ampersand" unicode="&#x26;" horiz-adv-x="788" 
d="M102.5 36q-70.5 51 -70.5 142q0 66 34 112t109 92q-43 41 -64 78.5t-21 83.5q0 49 25 87.5t72 60.5t109 22q60 0 105.5 -22.5t70.5 -61t25 -86.5q0 -57 -26.5 -97t-89.5 -82l147 -139q23 41 23 138h127q0 -78 -11.5 -129.5t-40.5 -101.5l139 -133h-181l-59 54
q-42 -36 -100.5 -52.5t-137.5 -16.5q-114 0 -184.5 51zM351.5 482.5q18.5 22.5 18.5 51.5q0 33 -20 53t-54 20t-53.5 -20t-19.5 -53q0 -25 15.5 -46t51.5 -54q43 26 61.5 48.5zM375.5 101q37.5 13 61.5 36l-163 159q-50 -23 -73 -51.5t-23 -66.5q0 -44 33 -67t81 -23
q46 0 83.5 13z" />
    <glyph glyph-name="quotesingle" unicode="'" horiz-adv-x="177" 
d="M32 699h112v-199h-112v199z" />
    <glyph glyph-name="parenleft" unicode="(" horiz-adv-x="351" 
d="M32 270q0 260 150 444h157q-152 -195 -152 -444t152 -444h-157q-150 184 -150 444z" />
    <glyph glyph-name="parenright" unicode=")" horiz-adv-x="351" 
d="M164 270q0 249 -152 444h157q150 -184 150 -444t-150 -444h-157q152 195 152 444z" />
    <glyph glyph-name="asterisk" unicode="*" horiz-adv-x="440" 
d="M72 415l76 103l-111 41l30 79l102 -36v97h102v-97l102 37l30 -80l-110 -40l76 -103l-80 -52l-68 95l-69 -96z" />
    <glyph glyph-name="plus" unicode="+" horiz-adv-x="409" 
d="M144 243h-112v116h112v114h120v-114h112v-116h-112v-114h-120v114z" />
    <glyph glyph-name="comma" unicode="," horiz-adv-x="304" 
d="M115 59h156l-101 -208h-138z" />
    <glyph glyph-name="hyphen" unicode="-" horiz-adv-x="409" 
d="M32 361h344v-120h-344v120z" />
    <glyph glyph-name="period" unicode="." horiz-adv-x="179" 
d="M48.5 16q-16.5 16 -16.5 40t17 41t40 17q24 0 41 -17t17 -41t-17 -40t-41 -16t-40.5 16z" />
    <glyph glyph-name="slash" unicode="/" horiz-adv-x="501" 
d="M317 714h152l-285 -714h-152z" />
    <glyph glyph-name="zero" unicode="0" horiz-adv-x="688" 
d="M178.5 28.5q-70.5 43.5 -108.5 126t-38 194.5q0 113 37.5 195t108 126t166.5 44t166 -44t107.5 -126t37.5 -195q0 -112 -38 -194.5t-108 -126t-165 -43.5t-165.5 43.5zM460 184q41 59 41 163q0 105 -40.5 165t-116.5 60t-116.5 -60t-40.5 -165q0 -104 41 -163t116 -59
t116 59z" />
    <glyph glyph-name="one" unicode="1" horiz-adv-x="381" 
d="M177 533l-145 -105v146l170 125h127v-699h-152v533z" />
    <glyph glyph-name="two" unicode="2" horiz-adv-x="583" 
d="M32 91l125 114q38 34 57 50q57 50 87 80.5t49 63.5t19 68q0 49 -28.5 77t-88.5 28q-50 0 -100 -17.5t-92 -49.5v145q44 31 100.5 47.5t122.5 16.5q76 0 131 -28t84 -79t29 -117q0 -74 -37.5 -131.5t-121.5 -135.5l-107 -98h290v-125h-519v91z" />
    <glyph glyph-name="three" unicode="3" horiz-adv-x="577" 
d="M133 -4.5q-59 10.5 -101 31.5v118q97 -44 203 -44q78 0 116.5 26t38.5 74q0 51 -38 72.5t-117 21.5h-92v116h88q65 0 101.5 23.5t36.5 69.5t-33 70t-92 24q-56 0 -103.5 -13.5t-92.5 -42.5v120q45 25 101 38.5t116 13.5q131 0 195 -53.5t64 -150.5q0 -48 -24.5 -89.5
t-72.5 -66.5q117 -43 117 -160q0 -209 -287 -209q-65 0 -124 10.5z" />
    <glyph glyph-name="four" unicode="4" horiz-adv-x="612" 
d="M340 155h-328v92l334 452h150v-427h103v-117h-103v-155h-156v155zM362 272v246l-180 -246h180z" />
    <glyph glyph-name="five" unicode="5" horiz-adv-x="577" 
d="M126.5 -2.5q-56.5 12.5 -94.5 34.5v131q44 -28 98.5 -43.5t103.5 -15.5q78 0 117 30.5t39 88.5q0 56 -38.5 86t-108.5 30q-35 0 -73.5 -7t-67.5 -19l-61 35l28 351h429v-125h-286l-11 -135q55 12 110 12q110 0 171.5 -59.5t61.5 -165.5q0 -115 -76.5 -178t-226.5 -63
q-58 0 -114.5 12.5z" />
    <glyph glyph-name="six" unicode="6" horiz-adv-x="623" 
d="M169 22.5q-64 37.5 -100.5 108t-36.5 167.5q0 131 43 225t121 142.5t183 48.5q66 0 118 -16v-126q-42 21 -106 21q-86 0 -138 -49.5t-63 -144.5q29 30 75 46t99 16q67 0 118.5 -27.5t80 -80t28.5 -123.5q0 -70 -32 -125.5t-94.5 -87.5t-149.5 -32q-82 0 -146 37.5z
M404.5 134q34.5 34 34.5 88t-34.5 89t-88.5 35q-51 0 -86 -35.5t-35 -88.5q0 -50 34.5 -86t86.5 -36q54 0 88.5 34z" />
    <glyph glyph-name="seven" unicode="7" horiz-adv-x="539" 
d="M356 574h-334v125h495v-103l-271 -596h-151z" />
    <glyph glyph-name="eight" unicode="8" horiz-adv-x="617" 
d="M107 40q-75 55 -75 157q0 62 30 104.5t80 61.5q-41 23 -63.5 63t-22.5 89q0 93 68.5 146t184.5 53t184 -53t68 -146q0 -50 -22.5 -89.5t-63.5 -62.5q50 -19 80 -61.5t30 -104.5q0 -102 -74.5 -157t-201.5 -55t-202 55zM386 429q30 27 30 70q0 44 -30 71.5t-77 27.5
t-76.5 -27.5t-29.5 -71.5q0 -43 29.5 -70t76.5 -27t77 27zM397.5 129q33.5 30 33.5 81q0 50 -34 79.5t-88 29.5t-88 -29.5t-34 -79.5q0 -51 33.5 -81t88.5 -30t88.5 30z" />
    <glyph glyph-name="nine" unicode="9" horiz-adv-x="623" 
d="M126 0v126q45 -21 106 -21q86 0 139 49.5t64 144.5q-29 -30 -72.5 -45.5t-96.5 -15.5q-69 0 -122 28t-82.5 80.5t-29.5 123.5q0 70 32 125.5t94 87t150 31.5q85 0 149 -37.5t99 -108t35 -168.5q0 -132 -43 -225.5t-121 -141.5t-183 -48q-70 0 -118 15zM395 387
q35 35 35 88q0 51 -34.5 87t-87.5 36t-87.5 -34.5t-34.5 -88.5q0 -53 34.5 -88t87.5 -35q52 0 87 35z" />
    <glyph glyph-name="colon" unicode=":" horiz-adv-x="217" 
d="M54.5 363.5q-22.5 22.5 -22.5 53.5t22.5 53.5t53.5 22.5q32 0 54 -22t22 -54q0 -31 -22.5 -53.5t-53.5 -22.5t-53.5 22.5zM54.5 34.5q-22.5 22.5 -22.5 53.5t22.5 53.5t53.5 22.5q32 0 54 -22t22 -54q0 -31 -22.5 -53.5t-53.5 -22.5t-53.5 22.5z" />
    <glyph glyph-name="semicolon" unicode=";" horiz-adv-x="304" 
d="M131.5 363.5q-22.5 22.5 -22.5 53.5t22.5 53.5t53.5 22.5q32 0 54 -22t22 -54q0 -31 -22.5 -53.5t-53.5 -22.5t-53.5 22.5zM115 59h156l-101 -208h-138z" />
    <glyph glyph-name="less" unicode="&#x3c;" horiz-adv-x="536" 
d="M32 272v106l472 231v-154l-279 -131l279 -130v-154z" />
    <glyph glyph-name="equal" unicode="=" horiz-adv-x="523" 
d="M32 509h459v-118h-459v118zM32 286h459v-119h-459v119z" />
    <glyph glyph-name="greater" unicode="&#x3e;" horiz-adv-x="536" 
d="M32 194l279 130l-279 131v154l472 -231v-106l-472 -232v154z" />
    <glyph glyph-name="question" unicode="?" horiz-adv-x="521" 
d="M146 241q0 55 21 95t66 72q7 6 13.5 10t12.5 8q39 26 55.5 44t16.5 45q0 35 -28 53.5t-84 18.5q-47 0 -96 -11t-91 -32v129q91 41 198 41q120 0 189.5 -50.5t69.5 -141.5q0 -36 -12.5 -62.5t-33.5 -46.5t-60 -48q-40 -30 -56 -44.5t-24.5 -33t-8.5 -47.5v-21h-148v22z
M160.5 8q-23.5 23 -23.5 58t23.5 58t58.5 23q34 0 58 -23.5t24 -57.5t-24 -57.5t-58 -23.5q-35 0 -58.5 23z" />
    <glyph glyph-name="at" unicode="@" horiz-adv-x="906" 
d="M230 -34q-94 42 -146 123t-52 196q0 125 56 222.5t157.5 152t233.5 54.5q122 0 211 -40.5t136.5 -118.5t47.5 -187q0 -117 -51 -189t-142 -72q-35 0 -65.5 17t-42.5 45q-24 -30 -62 -46t-83 -16q-82 0 -132.5 45t-50.5 134q0 68 28.5 122.5t81.5 86t124 31.5
q44 0 89.5 -10t77.5 -28l-13 -228q-2 -30 10.5 -46.5t34.5 -16.5q72 0 72 171q0 122 -66.5 180t-204.5 58q-96 0 -169 -38t-113.5 -110.5t-40.5 -172.5q0 -127 75.5 -191.5t217.5 -64.5q102 0 180 27v-103q-77 -29 -180 -29q-125 0 -219 42zM499 227q21 21 23 54l8 137
q-21 9 -54 9q-46 0 -75.5 -37t-29.5 -95q0 -89 69 -89q38 0 59 21z" />
    <glyph glyph-name="A" unicode="A" horiz-adv-x="772" 
d="M312 699h149l279 -699h-155l-60 152h-277l-60 -152h-156zM485 273l-99 266l-99 -266h198z" />
    <glyph glyph-name="B" unicode="B" horiz-adv-x="661" 
d="M52 699h343q99 0 155 -49t56 -142q0 -47 -22 -85.5t-60 -59.5q52 -19 78 -57.5t26 -100.5q0 -63 -28.5 -109.5t-78 -71t-109.5 -24.5h-360v699zM366 415q40 0 63 20t23 64q0 48 -22.5 66t-68.5 18h-157v-168h162zM375 116q49 0 74.5 19.5t25.5 68.5q0 50 -26.5 72
t-78.5 22h-166v-182h171z" />
    <glyph glyph-name="C" unicode="C" horiz-adv-x="693" 
d="M212 29.5q-86 44.5 -133 126.5t-47 193t47 193.5t133 127t198 44.5q145 0 242 -66v-144q-44 37 -100.5 53.5t-128.5 16.5q-109 0 -172.5 -60.5t-63.5 -164.5q0 -105 64 -165.5t172 -60.5q74 0 131 17.5t106 56.5v-144q-92 -68 -250 -68q-112 0 -198 44.5z" />
    <glyph glyph-name="D" unicode="D" horiz-adv-x="703" 
d="M52 699h243q114 0 199 -42t131 -120t46 -184q0 -174 -101.5 -263.5t-282.5 -89.5h-235v699zM295 127q107 0 164 60t57 166q0 63 -25 113t-73 78t-113 28h-101v-445h91z" />
    <glyph glyph-name="E" unicode="E" horiz-adv-x="559" 
d="M52 699h485v-127h-333v-162h245v-122h-245v-161h333v-127h-485v699z" />
    <glyph glyph-name="F" unicode="F" horiz-adv-x="549" 
d="M52 699h485v-128h-333v-163h245v-117h-245v-291h-152v699z" />
    <glyph glyph-name="G" unicode="G" horiz-adv-x="704" 
d="M212 29.5q-86 44.5 -133 126.5t-47 193t47 193.5t133 127t198 44.5q76 0 134.5 -15.5t107.5 -48.5v-145q-44 36 -100.5 52.5t-128.5 16.5q-67 0 -120.5 -27.5t-84.5 -78.5t-31 -119q0 -69 28.5 -120.5t80.5 -79.5t120 -28q62 0 108 22v135h-113v112h260v-337
q-99 -68 -261 -68q-112 0 -198 44.5z" />
    <glyph glyph-name="H" unicode="H" horiz-adv-x="713" 
d="M52 699h152v-280h305v280h152v-699h-152v293h-305v-293h-152v699z" />
    <glyph glyph-name="I" unicode="I" horiz-adv-x="257" 
d="M52 699h152v-699h-152v699z" />
    <glyph glyph-name="J" unicode="J" horiz-adv-x="387" 
d="M64.5 -9q-34.5 6 -52.5 15v131q15 -7 38 -11t46 -4q45 0 67 21t22 66v490h152v-504q0 -97 -54 -153.5t-153 -56.5q-31 0 -65.5 6z" />
    <glyph glyph-name="K" unicode="K" horiz-adv-x="701" 
d="M52 699h152v-304l264 304h181l-296 -341l316 -358h-181l-284 321v-321h-152v699z" />
    <glyph glyph-name="L" unicode="L" horiz-adv-x="537" 
d="M52 699h152v-572h320v-127h-472v699z" />
    <glyph glyph-name="M" unicode="M" horiz-adv-x="835" 
d="M52 699h150l215 -468l216 468h149v-699h-145v397l-185 -397h-70l-184 397v-397h-146v699z" />
    <glyph glyph-name="N" unicode="N" horiz-adv-x="696" 
d="M52 699h148l292 -452v452h152v-699h-147l-293 452v-452h-152v699z" />
    <glyph glyph-name="O" unicode="O" horiz-adv-x="810" 
d="M215.5 31q-85.5 46 -134.5 128.5t-49 189.5t49 190t134.5 129t190.5 46t189.5 -46t133.5 -129t49 -190t-49 -189.5t-133.5 -128.5t-189.5 -46t-190.5 46zM515.5 152.5q49.5 27.5 78.5 78t29 118.5q0 67 -28.5 117.5t-78 78t-110.5 27.5q-62 0 -111.5 -27.5t-78.5 -78
t-29 -117.5q0 -68 29 -118.5t79 -78t111 -27.5q60 0 109.5 27.5z" />
    <glyph glyph-name="P" unicode="P" horiz-adv-x="625" 
d="M52 699h294q119 0 190 -62.5t71 -173.5q0 -114 -70.5 -175t-190.5 -61h-142v-227h-152v699zM324 354q129 0 129 109q0 61 -34.5 85t-94.5 24h-120v-218h120z" />
    <glyph glyph-name="Q" unicode="Q" horiz-adv-x="808" 
d="M218 42.5q-89 42.5 -137.5 122t-48.5 186.5t49 189.5t134.5 128t190.5 45.5t189.5 -45.5t133.5 -128t49 -189.5q0 -66 -30.5 -128t-76.5 -99h122v-124h-368q-118 0 -207 42.5zM518 158.5q49 25.5 77 75t28 116.5t-28.5 117.5t-78 77.5t-110.5 27q-62 0 -111.5 -27
t-78.5 -77.5t-29 -117.5q0 -102 60.5 -159.5t158.5 -57.5q63 0 112 25.5z" />
    <glyph glyph-name="R" unicode="R" horiz-adv-x="640" 
d="M52 699h303q119 0 185.5 -59.5t66.5 -171.5q0 -78 -36 -132.5t-102 -79.5l133 -256h-156l-123 237h-119v-237h-152v699zM328 364q58 0 91.5 25t33.5 79q0 57 -33 80.5t-92 23.5h-124v-208h124z" />
    <glyph glyph-name="S" unicode="S" horiz-adv-x="568" 
d="M135 -3q-63 12 -103 32v134q53 -26 110 -39t109 -13q58 0 88 20t30 56q0 26 -15 44t-43.5 32.5t-87.5 38.5q-98 40 -142 89.5t-44 122.5q0 59 32 104.5t90 70.5t134 25q62 0 110 -10t94 -31v-130q-88 44 -176 44q-56 0 -88 -19.5t-32 -55.5q0 -26 15 -43t42 -30t88 -38
q71 -30 111 -57.5t59 -65t19 -92.5q0 -95 -68.5 -148t-204.5 -53q-64 0 -127 12z" />
    <glyph glyph-name="T" unicode="T" horiz-adv-x="590" 
d="M219 572h-204v127h560v-127h-204v-572h-152v572z" />
    <glyph glyph-name="U" unicode="U" horiz-adv-x="711" 
d="M125 65.5q-78 80.5 -78 216.5v417h152v-419q0 -76 42 -116t115 -40q72 0 113.5 40t41.5 116v419h152v-417q0 -136 -77 -216.5t-230 -80.5t-231 80.5z" />
    <glyph glyph-name="V" unicode="V" horiz-adv-x="772" 
d="M32 699h162l192 -497l193 497h161l-279 -699h-149z" />
    <glyph glyph-name="W" unicode="W" horiz-adv-x="993" 
d="M32 699h160l125 -452l123 452h117l119 -452l125 452h159l-196 -699h-143l-125 443l-124 -443h-144z" />
    <glyph glyph-name="X" unicode="X" horiz-adv-x="750" 
d="M288 352l-252 347h174l165 -228l166 228h174l-253 -347l256 -352h-174l-169 232l-169 -232h-174z" />
    <glyph glyph-name="Y" unicode="Y" horiz-adv-x="732" 
d="M288 266l-256 433h162l169 -291l175 291h161l-262 -433v-266h-149v266z" />
    <glyph glyph-name="Z" unicode="Z" horiz-adv-x="615" 
d="M32 101l342 471h-333v127h521v-102l-340 -470h360v-127h-550v101z" />
    <glyph glyph-name="bracketleft" unicode="[" horiz-adv-x="328" 
d="M32 787h273v-127h-121v-629h121v-127h-273v883z" />
    <glyph glyph-name="backslash" unicode="\" horiz-adv-x="501" 
d="M32 714h152l285 -714h-152z" />
    <glyph glyph-name="bracketright" unicode="]" horiz-adv-x="328" 
d="M22 31h121v629h-121v127h273v-883h-273v127z" />
    <glyph glyph-name="asciicircum" unicode="^" horiz-adv-x="574" 
d="M227 719h120l195 -336h-145l-110 196l-110 -196h-145z" />
    <glyph glyph-name="underscore" unicode="_" horiz-adv-x="483" 
d="M32 0h419v-128h-419v128z" />
    <glyph glyph-name="grave" unicode="`" horiz-adv-x="293" 
d="M32 744h159l69 -176h-139z" />
    <glyph glyph-name="a" unicode="a" horiz-adv-x="585" 
d="M87.5 29.5q-55.5 44.5 -55.5 121.5q0 80 53 124.5t150 44.5q43 0 82 -9t69 -25v12q0 45 -32 66t-98 21q-88 0 -162 -33v110q32 14 83 23.5t102 9.5q130 0 194 -53.5t64 -149.5v-292h-142v44q-61 -59 -164 -59q-88 0 -143.5 44.5zM339 99q30 14 47 39v48q-51 34 -112 34
q-42 0 -64.5 -17.5t-22.5 -51.5q0 -32 22 -49t63 -17q37 0 67 14z" />
    <glyph glyph-name="b" unicode="b" horiz-adv-x="665" 
d="M278.5 1q-43.5 16 -80.5 51v-52h-146v739h151v-302q32 28 78 43t97 15q75 0 132.5 -32.5t89.5 -90.5t32 -133q0 -76 -32 -133.5t-89.5 -89t-132.5 -31.5q-56 0 -99.5 16zM439.5 139.5q38.5 37.5 38.5 99.5t-38.5 100t-99.5 38q-47 0 -84.5 -25.5t-52.5 -66.5v-91
q16 -42 53 -67t84 -25q61 0 99.5 37.5z" />
    <glyph glyph-name="c" unicode="c" horiz-adv-x="543" 
d="M109 51.5q-77 66.5 -77 187.5t77.5 188.5t207.5 67.5q118 0 188 -44v-119q-32 23 -74.5 34t-89.5 11q-70 0 -112 -34t-42 -104t41.5 -103.5t111.5 -33.5q97 0 171 47v-118q-74 -46 -195 -46q-130 0 -207 66.5z" />
    <glyph glyph-name="d" unicode="d" horiz-adv-x="665" 
d="M154.5 16.5q-57.5 31.5 -90 89t-32.5 133.5q0 75 32 133t90 90.5t132 32.5q54 0 99 -15t76 -43v302h151v-739h-146v52q-37 -35 -80.5 -51t-99.5 -16q-74 0 -131.5 31.5zM408.5 127q36.5 25 52.5 67v91q-14 41 -51.5 66.5t-84.5 25.5q-61 0 -99.5 -38t-38.5 -100
t38.5 -99.5t99.5 -37.5q47 0 83.5 25z" />
    <glyph glyph-name="e" unicode="e" horiz-adv-x="604" 
d="M111 51.5q-79 66.5 -79 186.5q0 119 70.5 188t201.5 69q86 0 146 -32t91 -88.5t31 -127.5v-61h-396q16 -92 172 -92q46 0 95 8t85 22v-106q-35 -15 -90 -24t-110 -9q-138 0 -217 66.5zM429 284q-3 48 -36 74.5t-91 26.5q-57 0 -90 -27t-36 -74h253z" />
    <glyph glyph-name="f" unicode="f" horiz-adv-x="369" 
d="M81 371h-69v109h69v71q0 93 57 143t148 50q52 0 90 -16v-121q-29 13 -61 13q-42 0 -62.5 -19t-20.5 -62v-59h114v-109h-114v-371h-151v371z" />
    <glyph glyph-name="g" unicode="g" horiz-adv-x="665" 
d="M213.5 -221q-48.5 9 -81.5 24v111q77 -34 178 -34q81 0 116 33t35 99v30q-31 -28 -76 -42.5t-96 -14.5q-74 0 -132.5 32.5t-91.5 90.5t-33 132q0 76 32.5 134t90 89.5t131.5 31.5q56 0 99 -16t81 -51v52h146v-449q0 -125 -74 -193t-228 -68q-48 0 -96.5 9zM409.5 127.5
q37.5 25.5 51.5 67.5v90q-16 42 -52.5 67t-83.5 25q-61 0 -99.5 -37t-38.5 -99q0 -63 38.5 -101t99.5 -38q47 0 84.5 25.5z" />
    <glyph glyph-name="h" unicode="h" horiz-adv-x="615" 
d="M52 739h151v-314q34 35 77 52.5t92 17.5q98 0 146.5 -52.5t48.5 -141.5v-301h-151v284q0 93 -86 93q-38 0 -71 -18.5t-56 -54.5v-304h-151v739z" />
    <glyph glyph-name="i" unicode="i" horiz-adv-x="270" 
d="M76 577q-24 23 -24 58q0 34 24 57.5t59 23.5t59 -23.5t24 -57.5q0 -35 -24 -58t-59 -23t-59 23zM59 480h152v-480h-152v480z" />
    <glyph glyph-name="j" unicode="j" horiz-adv-x="267" 
d="M73 577q-24 23 -24 58q0 34 24 57.5t59 23.5q34 0 58 -23.5t24 -57.5q0 -35 -24 -58t-58 -23q-35 0 -59 23zM-85 -216v121q26 -13 65 -13q38 0 57 19t19 60v509h151v-526q0 -92 -55 -138.5t-147 -46.5q-56 0 -90 15z" />
    <glyph glyph-name="k" unicode="k" horiz-adv-x="610" 
d="M52 739h151v-462l175 203h175l-203 -234l228 -246h-175l-200 216v-216h-151v739z" />
    <glyph glyph-name="l" unicode="l" horiz-adv-x="256" 
d="M52 739h151v-739h-151v739z" />
    <glyph glyph-name="m" unicode="m" horiz-adv-x="873" 
d="M52 480h141v-58q31 35 72 54t85 19q55 0 88 -17.5t52 -51.5q31 33 75.5 51t88.5 18q92 0 131.5 -47t39.5 -136v-312h-144v291q0 46 -18 66t-58 20q-56 0 -90 -44q2 -32 2 -52v-281h-145v296q0 44 -15.5 62.5t-53.5 18.5q-59 0 -105 -67v-310h-146v480z" />
    <glyph glyph-name="n" unicode="n" horiz-adv-x="615" 
d="M52 480h146v-59q33 37 78.5 55.5t95.5 18.5q98 0 146.5 -52.5t48.5 -141.5v-301h-151v284q0 93 -86 93q-38 0 -71 -18.5t-56 -54.5v-304h-151v480z" />
    <glyph glyph-name="o" unicode="o" horiz-adv-x="642" 
d="M168.5 16.5q-65.5 31.5 -101 89t-35.5 134.5q0 75 35.5 133t101 90t152.5 32q86 0 151.5 -32t101 -90t35.5 -133q0 -77 -35.5 -134.5t-100.5 -89t-152 -31.5t-152.5 31.5zM418 140.5q36 37.5 36 99.5q0 64 -35.5 100.5t-97.5 36.5t-98 -36.5t-36 -100.5q0 -62 36.5 -99.5
t97.5 -37.5t97 37.5z" />
    <glyph glyph-name="p" unicode="p" horiz-adv-x="665" 
d="M52 480h146v-53q73 68 180 68q75 0 132.5 -31.5t89.5 -89t32 -133.5q0 -75 -32 -133t-89.5 -90.5t-132.5 -32.5q-51 0 -97 15t-78 43v-262h-151v699zM439.5 141q38.5 38 38.5 100t-38.5 99t-99.5 37q-47 0 -84 -25t-53 -66v-91q15 -42 52.5 -67t84.5 -25q61 0 99.5 38z
" />
    <glyph glyph-name="q" unicode="q" horiz-adv-x="665" 
d="M461 43q-31 -28 -77 -43t-98 -15q-74 0 -132 32.5t-90 90.5t-32 133q0 76 32.5 133.5t90 89t131.5 31.5q107 0 180 -68v53h146v-699h-151v262zM409.5 128q37.5 25 51.5 67v91q-16 42 -52.5 66.5t-83.5 24.5q-61 0 -99.5 -37t-38.5 -99t38.5 -100t99.5 -38q47 0 84.5 25z
" />
    <glyph glyph-name="r" unicode="r" horiz-adv-x="409" 
d="M52 480h146v-69q29 35 81 53.5t118 18.5v-115q-69 0 -121.5 -21t-72.5 -64v-283h-151v480z" />
    <glyph glyph-name="s" unicode="s" horiz-adv-x="504" 
d="M133.5 -3.5q-61.5 11.5 -96.5 32.5v118q40 -24 96 -39t104 -15q41 0 60 7t19 26q0 15 -11 24.5t-33.5 17t-74.5 22.5q-61 18 -95.5 36.5t-52 46.5t-17.5 72q0 75 59.5 112.5t161.5 37.5q50 0 103.5 -10.5t82.5 -27.5v-115q-29 19 -75.5 31t-90.5 12q-41 0 -63.5 -8
t-22.5 -30q0 -19 21.5 -29t80.5 -25l20 -5q63 -17 98 -37.5t49.5 -49t14.5 -71.5q0 -66 -57 -105.5t-165 -39.5q-54 0 -115.5 11.5z" />
    <glyph glyph-name="t" unicode="t" horiz-adv-x="387" 
d="M125.5 31.5q-43.5 46.5 -43.5 129.5v210h-70v109h70v144h151v-144h113v-109h-113v-190q0 -42 16 -60.5t57 -18.5q33 0 63 16v-113q-46 -20 -116 -20q-84 0 -127.5 46.5z" />
    <glyph glyph-name="u" unicode="u" horiz-adv-x="615" 
d="M96 38.5q-49 53.5 -49 142.5v299h151v-283q0 -94 87 -94q38 0 71 18t55 54v305h151v-480h-146v58q-32 -37 -77.5 -55t-95.5 -18q-98 0 -147 53.5z" />
    <glyph glyph-name="v" unicode="v" horiz-adv-x="606" 
d="M40 480h127l130 -332l130 332h127l-198 -480h-118z" />
    <glyph glyph-name="w" unicode="w" horiz-adv-x="841" 
d="M32 480h151l88 -300l86 300h126l87 -300l87 300h151l-159 -480h-137l-92 298l-92 -298h-137z" />
    <glyph glyph-name="x" unicode="x" horiz-adv-x="645" 
d="M238 248l-192 232h169l107 -130l108 130h169l-193 -232l206 -248h-167l-123 147l-122 -147h-168z" />
    <glyph glyph-name="y" unicode="y" horiz-adv-x="612" 
d="M122.5 -194q-31.5 4 -47.5 11v113q29 -11 64 -11q36 0 54.5 16t30.5 50l16 41l-208 454h152l136 -331l129 331h151l-204 -513q-34 -85 -84 -125t-128 -40q-30 0 -61.5 4z" />
    <glyph glyph-name="z" unicode="z" horiz-adv-x="509" 
d="M32 87l242 284h-235v109h430v-88l-240 -283h248v-109h-445v87z" />
    <glyph glyph-name="braceleft" unicode="{" horiz-adv-x="350" 
d="M121.5 -70q-25.5 27 -25.5 81v202q0 31 -14.5 48.5t-43.5 17.5h-26v132h26q29 0 43.5 17t14.5 48v202q0 55 25.5 82t71.5 27h129v-128h-39q-20 0 -28 -9t-8 -30v-168q0 -83 -68 -106v-2q34 -10 51 -37.5t17 -68.5v-168q0 -21 8 -30.5t28 -9.5h39v-127h-129
q-46 0 -71.5 27z" />
    <glyph glyph-name="bar" unicode="|" horiz-adv-x="217" 
d="M32 812h152v-956h-152v956z" />
    <glyph glyph-name="braceright" unicode="}" horiz-adv-x="350" 
d="M27 30h39q20 0 28 9.5t8 30.5v168q0 41 17 68.5t51 37.5v2q-68 23 -68 106v168q0 21 -8 30t-28 9h-39v128h130q46 0 71.5 -27t25.5 -82v-202q0 -31 14.5 -48t42.5 -17h26v-132h-26q-28 0 -42.5 -17.5t-14.5 -48.5v-202q0 -54 -25.5 -81t-71.5 -27h-130v127z" />
    <glyph glyph-name="asciitilde" unicode="~" horiz-adv-x="527" 
d="M326 257.5q-28 7.5 -67 22.5q-36 14 -62 21.5t-51 7.5q-70 0 -114 -57v133q17 23 46.5 35.5t67.5 12.5q27 0 54.5 -7.5t66.5 -22.5q37 -14 63.5 -21.5t50.5 -7.5q69 0 113 58v-133q-16 -24 -45.5 -36.5t-67.5 -12.5q-27 0 -55 7.5z" />
    <glyph glyph-name="uni00A0" unicode="&#xa0;" horiz-adv-x="350" 
 />
    <glyph glyph-name="exclamdown" unicode="&#xa1;" horiz-adv-x="229" 
d="M56 411q-24 23 -24 58q0 34 24 57.5t59 23.5q34 0 58 -23.5t24 -57.5q0 -35 -24 -58t-58 -23q-35 0 -59 23zM41 313h148v-480h-148v480z" />
    <glyph glyph-name="cent" unicode="&#xa2;" horiz-adv-x="543" 
d="M269 -12q-106 13 -167.5 78.5t-61.5 172.5q0 106 61.5 172t167.5 80v90h108v-89q73 -7 125 -41v-101q-50 36 -125 44v-308q75 9 131 46v-100q-53 -35 -131 -44v-89h-108v89zM269 387q-48 -14 -74.5 -51t-26.5 -97t27 -96.5t74 -50.5v295z" />
    <glyph glyph-name="sterling" unicode="&#xa3;" horiz-adv-x="487" 
d="M32 127h74v182h-70v122h70v83q0 63 29 108.5t79 68.5t112 23q53 0 91 -16v-121q-31 13 -62 13q-45 0 -71 -22.5t-26 -65.5v-71h150v-122h-150v-182h197v-127h-423v127z" />
    <glyph glyph-name="currency" unicode="&#xa4;" horiz-adv-x="600" 
d="M32 116l85 63q-28 45 -28 97t28 99l-84 62l63 78l89 -71q51 35 115 35q65 0 116 -35l88 70l63 -77l-84 -62q28 -44 28 -99q0 -54 -28 -97l85 -63l-64 -78l-89 69q-52 -34 -115 -34q-62 0 -114 34l-90 -69zM367.5 208.5q27.5 27.5 27.5 67.5q0 41 -27.5 69t-67.5 28
t-67.5 -28t-27.5 -69q0 -40 27.5 -67.5t67.5 -27.5t67.5 27.5z" />
    <glyph glyph-name="yen" unicode="&#xa5;" horiz-adv-x="732" 
d="M288 85h-132v99h132v54h-132v98h90l-214 363h162l169 -291l175 291h161l-220 -363h90v-98h-132v-54h132v-99h-132v-85h-149v85z" />
    <glyph glyph-name="brokenbar" unicode="&#xa6;" horiz-adv-x="217" 
d="M32 812h152v-396h-152v396zM32 251h152v-395h-152v395z" />
    <glyph glyph-name="section" unicode="&#xa7;" horiz-adv-x="568" 
d="M135 -158q-63 12 -103 32v134q53 -26 110 -39t109 -13q57 0 86 20t29 56q0 26 -13.5 43t-40 30.5t-89.5 39.5q-98 41 -142 91t-44 123q0 42 21 76q-21 34 -21 79q0 59 32 104.5t90 70.5t134 25q62 0 110 -10t94 -31v-130q-88 44 -176 44q-52 0 -84.5 -21.5t-32.5 -55.5
q0 -32 31 -54t111 -56q73 -31 112.5 -57.5t58 -63t18.5 -93.5q0 -40 -19 -75q19 -35 19 -80q0 -95 -68.5 -148t-204.5 -53q-64 0 -127 12zM404 206q0 34 -25.5 53.5t-93.5 47.5q-33 13 -62 29.5t-42 29.5q-5 -15 -5 -28q0 -31 26.5 -51.5t88.5 -47.5q43 -18 69 -31.5
t40 -28.5q4 16 4 27z" />
    <glyph glyph-name="dieresis" unicode="&#xa8;" horiz-adv-x="445" 
d="M53.5 594.5q-21.5 20.5 -21.5 50.5t21.5 51t51.5 21q29 0 50 -21t21 -51t-21 -50.5t-50 -20.5q-30 0 -51.5 20.5zM290 594.5q-21 20.5 -21 50.5t21.5 51t50.5 21t50 -21t21 -51t-21 -50.5t-50 -20.5q-30 0 -51 20.5z" />
    <glyph glyph-name="copyright" unicode="&#xa9;" horiz-adv-x="806" 
d="M216 31q-85 46 -134.5 129t-49.5 189q0 107 49.5 190t134.5 129t187 46t186.5 -46t134 -129t49.5 -190q0 -106 -49.5 -189t-134 -129t-186.5 -46t-187 46zM534 121.5q58 30.5 91.5 89t33.5 138.5t-33 138t-91 88.5t-132 30.5t-132 -30.5t-91 -88.5t-33 -138t33.5 -138.5
t91.5 -89t131 -30.5t131 30.5zM243 189q-60 57 -60 159t60.5 159t159.5 57q98 0 156 -37v-100q-53 38 -135 38q-56 0 -87 -29t-31 -88t30.5 -88t85.5 -29q81 0 143 41v-100q-66 -40 -164 -40t-158 57z" />
    <glyph glyph-name="ordfeminine" unicode="&#xaa;" horiz-adv-x="426" 
d="M71.5 381q-39.5 32 -39.5 87q0 57 38 89t108 32q30 0 58 -6.5t49 -18.5v9q0 62 -92 62q-64 0 -117 -24v79q24 10 60.5 17t72.5 7q93 0 139 -38.5t46 -106.5v-209h-102v31q-42 -42 -118 -42q-63 0 -102.5 32zM252 430.5q22 10.5 33 27.5v35q-35 24 -80 24q-62 0 -62 -49
q0 -23 16 -35.5t45 -12.5q26 0 48 10.5z" />
    <glyph glyph-name="guillemotleft" unicode="&#xab;" horiz-adv-x="656" 
d="M32 307v35l242 214l81 -89l-165 -143l165 -141l-81 -90zM301 307v35l242 214l81 -89l-165 -143l165 -141l-81 -90z" />
    <glyph glyph-name="logicalnot" unicode="&#xac;" horiz-adv-x="446" 
d="M272 243h-240v118h382v-232h-142v114z" />
    <glyph glyph-name="uni00AD" unicode="&#xad;" horiz-adv-x="409" 
d="M32 361h344v-120h-344v120z" />
    <glyph glyph-name="registered" unicode="&#xae;" horiz-adv-x="806" 
d="M216 31q-85 46 -134.5 129t-49.5 189q0 107 49.5 190t134.5 129t187 46t186.5 -46t134 -129t49.5 -190q0 -106 -49.5 -189t-134 -129t-186.5 -46t-187 46zM534 121.5q58 30.5 91.5 89t33.5 138.5t-33 138t-91 88.5t-132 30.5t-132 -30.5t-91 -88.5t-33 -138t33.5 -138.5
t91.5 -89t131 -30.5t131 30.5zM249 555h179q71 0 113 -35.5t42 -100.5q0 -46 -22 -77.5t-63 -46.5l70 -142h-107l-65 131h-37v-131h-110v402zM421 371q60 0 60 48q0 27 -14.5 38t-45.5 11h-62v-97h62z" />
    <glyph glyph-name="macron" unicode="&#xaf;" horiz-adv-x="399" 
d="M32 682h334v-98h-334v98z" />
    <glyph glyph-name="degree" unicode="&#xb0;" horiz-adv-x="353" 
d="M104 458.5q-33 19.5 -52.5 52.5t-19.5 72t19.5 72t52.5 52.5t72 19.5t72 -19.5t52.5 -52.5t19.5 -72t-19.5 -72t-52.5 -52.5t-72 -19.5t-72 19.5zM217 541.5q17 17.5 17 41.5q0 23 -17 40t-41 17t-40.5 -17t-16.5 -40q0 -24 17 -41.5t40 -17.5q24 0 41 17.5z" />
    <glyph glyph-name="plusminus" unicode="&#xb1;" horiz-adv-x="409" 
d="M144 275h-112v116h112v114h120v-114h112v-116h-112v-114h-120v114zM32 116h344v-116h-344v116z" />
    <glyph glyph-name="uni00B2" unicode="&#xb2;" horiz-adv-x="340" 
d="M32 433l66 51q51 39 72 60.5t21 41.5q0 33 -44 33q-25 0 -54 -9.5t-48 -23.5v93q19 13 54 21.5t66 8.5q68 0 103 -31.5t35 -77.5q0 -28 -13 -50t-35.5 -42t-71.5 -58h125v-80h-276v63z" />
    <glyph glyph-name="uni00B3" unicode="&#xb3;" horiz-adv-x="345" 
d="M32 380v77q22 -11 49.5 -16.5t51.5 -5.5q30 0 46 7.5t16 26.5q0 17 -14 24.5t-48 7.5h-47v69h46q54 0 54 30q0 15 -15 23.5t-42 8.5q-49 0 -90 -26v78q22 12 55 18.5t70 6.5q65 0 102 -26.5t37 -71.5q0 -51 -45 -76q54 -17 54 -75q0 -46 -39.5 -73t-111.5 -27
q-83 0 -129 20z" />
    <glyph glyph-name="acute" unicode="&#xb4;" horiz-adv-x="293" 
d="M102 744h158l-88 -176h-140z" />
    <glyph glyph-name="paragraph" unicode="&#xb6;" horiz-adv-x="760" 
d="M317 269h-45q-108 0 -174 62.5t-66 181.5q0 121 74 185t194 64h427v-896h-152v771h-106v-771h-152v403z" />
    <glyph glyph-name="periodcentered" unicode="&#xb7;" horiz-adv-x="179" 
d="M49 256q-17 17 -17 40q0 24 17 41t40 17q24 0 41 -17t17 -41q0 -23 -17 -40t-41 -17q-23 0 -40 17z" />
    <glyph glyph-name="cedilla" unicode="&#xb8;" horiz-adv-x="319" 
d="M75 -244.5q-28 3.5 -43 9.5l1 77q10 -6 26.5 -9.5t32.5 -3.5q55 0 55 37q0 47 -99 47l34 87h134l-19 -49q43 -6 66 -30.5t23 -66.5q0 -50 -40.5 -76t-111.5 -26q-31 0 -59 3.5z" />
    <glyph glyph-name="uni00B9" unicode="&#xb9;" horiz-adv-x="233" 
d="M110 589l-78 -56v100l89 66h100v-329h-111v219z" />
    <glyph glyph-name="ordmasculine" unicode="&#xba;" horiz-adv-x="479" 
d="M88.5 397.5q-56.5 49.5 -56.5 133.5q0 54 25.5 95.5t73 64.5t109.5 23t108.5 -23t72 -64.5t25.5 -95.5q0 -84 -56 -133.5t-150 -49.5q-95 0 -151.5 49.5zM308 461q26 27 26 70q0 45 -25.5 71t-68.5 26q-44 0 -69.5 -26t-25.5 -71q0 -43 25.5 -70t69.5 -27q42 0 68 27z
" />
    <glyph glyph-name="guillemotright" unicode="&#xbb;" horiz-adv-x="656" 
d="M32 183l165 141l-165 143l81 89l242 -214v-35l-242 -214zM301 183l165 141l-165 143l81 89l242 -214v-35l-242 -214z" />
    <glyph glyph-name="onequarter" unicode="&#xbc;" horiz-adv-x="750" 
d="M110 589l-78 -56v100l89 66h100v-329h-111v219zM485 699h154l-387 -699h-154zM562 63h-150v72l143 194h117v-189h46v-77h-46v-63h-110v63zM586 140v96l-74 -96h74z" />
    <glyph glyph-name="onehalf" unicode="&#xbd;" horiz-adv-x="769" 
d="M110 589l-78 -56v100l89 66h100v-329h-111v219zM485 699h154l-387 -699h-154zM461 63l29 22q73 55 101 82t28 49q0 33 -44 33q-24 0 -53.5 -9.5t-47.5 -23.5v93q19 13 53.5 21.5t65.5 8.5q68 0 103 -31.5t35 -77.5q0 -28 -13 -50t-35.5 -42t-71.5 -58h125v-80h-275v63z
" />
    <glyph glyph-name="threequarters" unicode="&#xbe;" horiz-adv-x="763" 
d="M32 380v77q22 -11 49.5 -16.5t51.5 -5.5q30 0 46 7.5t16 26.5q0 17 -14 24.5t-48 7.5h-47v69h46q54 0 54 30q0 15 -15 23.5t-42 8.5q-49 0 -90 -26v78q22 12 55 18.5t70 6.5q65 0 102 -26.5t37 -71.5q0 -51 -45 -76q54 -17 54 -75q0 -46 -39.5 -73t-111.5 -27
q-83 0 -129 20zM499 699h154l-387 -699h-154zM575 63h-150v72l143 194h117v-189h46v-77h-46v-63h-110v63zM599 140v96l-74 -96h74z" />
    <glyph glyph-name="questiondown" unicode="&#xbf;" horiz-adv-x="521" 
d="M244 411q-24 23 -24 58q0 34 24 57.5t58 23.5q35 0 58.5 -23.5t23.5 -57.5q0 -35 -23.5 -58t-58.5 -23q-34 0 -58 23zM101.5 -128.5q-69.5 50.5 -69.5 141.5q0 36 12.5 62t33.5 45.5t60 48.5q40 30 56 44.5t24.5 33t8.5 48.5v20h148v-22q0 -55 -21 -95t-66 -72l-25 -17
q-40 -27 -56.5 -44t-16.5 -45q0 -73 112 -73q47 0 95.5 11.5t91.5 32.5v-130q-88 -40 -198 -40q-120 0 -189.5 50.5z" />
    <glyph glyph-name="Agrave" unicode="&#xc0;" horiz-adv-x="772" 
d="M228 918h159l69 -176h-140zM312 699h149l279 -699h-155l-60 152h-277l-60 -152h-156zM485 273l-99 266l-99 -266h198z" />
    <glyph glyph-name="Aacute" unicode="&#xc1;" horiz-adv-x="772" 
d="M390 918h159l-89 -176h-139zM312 699h149l279 -699h-155l-60 152h-277l-60 -152h-156zM485 273l-99 266l-99 -266h198z" />
    <glyph glyph-name="Acircumflex" unicode="&#xc2;" horiz-adv-x="772" 
d="M319 918h135l151 -176h-150l-68 92l-68 -92h-151zM312 699h149l279 -699h-155l-60 152h-277l-60 -152h-156zM485 273l-99 266l-99 -266h198z" />
    <glyph glyph-name="Atilde" unicode="&#xc3;" horiz-adv-x="772" 
d="M187 857q33 43 103 43q22 0 43.5 -6t55.5 -19q29 -12 50.5 -18.5t43.5 -6.5q63 0 102 50v-115q-33 -42 -102 -42q-25 0 -48.5 6.5t-54.5 19.5q-31 12 -50 18t-40 6q-61 0 -103 -51v115zM312 699h149l279 -699h-155l-60 152h-277l-60 -152h-156zM485 273l-99 266l-99 -266
h198z" />
    <glyph glyph-name="Adieresis" unicode="&#xc4;" horiz-adv-x="772" 
d="M217 772.5q-21 20.5 -21 50.5t21.5 51t50.5 21t50 -21t21 -51t-21 -50.5t-50 -20.5q-30 0 -51 20.5zM453.5 772.5q-21.5 20.5 -21.5 50.5t21.5 51t51.5 21q29 0 50 -21t21 -51t-21 -50.5t-50 -20.5q-30 0 -51.5 20.5zM312 699h149l279 -699h-155l-60 152h-277l-60 -152
h-156zM485 273l-99 266l-99 -266h198z" />
    <glyph glyph-name="Aring" unicode="&#xc5;" horiz-adv-x="772" 
d="M740 0h-155l-60 152h-277l-60 -152h-156l270 673q-23 18 -36 45t-13 58q0 36 18 66.5t48.5 48t66.5 17.5t66.5 -18t48.5 -48t18 -66q0 -30 -13 -57t-35 -45zM351.5 810q-14.5 -14 -14.5 -34t14.5 -34.5t34.5 -14.5t34 14.5t14 34.5t-14 34t-34 14t-34.5 -14zM485 273
l-99 266l-99 -266h198z" />
    <glyph glyph-name="AE" unicode="&#xc6;" horiz-adv-x="915" 
d="M351 699h537v-127h-301v-162h214v-122h-214v-161h301v-127h-453v158h-168l-72 -158h-163zM435 275v276h-2l-117 -276h119z" />
    <glyph glyph-name="Ccedilla" unicode="&#xc7;" horiz-adv-x="693" 
d="M488 -10l-15 -39q43 -6 66 -30.5t23 -66.5q0 -50 -40.5 -76t-111.5 -26q-31 0 -59 3.5t-43 9.5l1 77q10 -6 26.5 -9.5t32.5 -3.5q55 0 55 37q0 47 -99 47l29 75q-97 11 -169.5 58t-112 124.5t-39.5 178.5q0 111 47 193.5t133 127t198 44.5q145 0 242 -66v-144
q-44 37 -100.5 53.5t-128.5 16.5q-109 0 -172.5 -60.5t-63.5 -164.5q0 -105 64 -165.5t172 -60.5q74 0 131 17.5t106 56.5v-144q-68 -51 -172 -63z" />
    <glyph glyph-name="Egrave" unicode="&#xc8;" horiz-adv-x="569" 
d="M142 918h159l69 -176h-140zM52 699h485v-127h-333v-162h245v-122h-245v-161h333v-127h-485v699z" />
    <glyph glyph-name="Eacute" unicode="&#xc9;" horiz-adv-x="559" 
d="M280 918h159l-89 -176h-139zM52 699h485v-127h-333v-162h245v-122h-245v-161h333v-127h-485v699z" />
    <glyph glyph-name="Ecircumflex" unicode="&#xca;" horiz-adv-x="562" 
d="M219 918h135l151 -176h-150l-68 92l-68 -92h-151zM52 699h485v-127h-333v-162h245v-122h-245v-161h333v-127h-485v699z" />
    <glyph glyph-name="Edieresis" unicode="&#xcb;" horiz-adv-x="569" 
d="M124 772.5q-21 20.5 -21 50.5t21.5 51t50.5 21t50 -21t21 -51t-21 -50.5t-50 -20.5q-30 0 -51 20.5zM360.5 772.5q-21.5 20.5 -21.5 50.5t21.5 51t51.5 21q29 0 50 -21t21 -51t-21 -50.5t-50 -20.5q-30 0 -51.5 20.5zM52 699h485v-127h-333v-162h245v-122h-245v-161h333
v-127h-485v699z" />
    <glyph glyph-name="Igrave" unicode="&#xcc;" horiz-adv-x="260" 
d="M-28 918h159l69 -176h-140zM53 699h152v-699h-152v699z" />
    <glyph glyph-name="Iacute" unicode="&#xcd;" horiz-adv-x="260" 
d="M128 918h159l-89 -176h-139zM53 699h152v-699h-152v699z" />
    <glyph glyph-name="Icircumflex" unicode="&#xce;" horiz-adv-x="260" 
d="M62 918h135l151 -176h-150l-68 92l-68 -92h-151zM53 699h152v-699h-152v699z" />
    <glyph glyph-name="Idieresis" unicode="&#xcf;" horiz-adv-x="260" 
d="M-40 772.5q-21 20.5 -21 50.5t21.5 51t50.5 21t50 -21t21 -51t-21 -50.5t-50 -20.5q-30 0 -51 20.5zM196.5 772.5q-21.5 20.5 -21.5 50.5t21.5 51t51.5 21q29 0 50 -21t21 -51t-21 -50.5t-50 -20.5q-30 0 -51.5 20.5zM53 699h152v-699h-152v699z" />
    <glyph glyph-name="Eth" unicode="&#xd0;" horiz-adv-x="733" 
d="M82 292h-55v114h55v293h243q114 0 199 -42t131 -120t46 -184q0 -174 -101.5 -263.5t-282.5 -89.5h-235v292zM325 127q107 0 164 60t57 166q0 63 -25 113t-73 78t-113 28h-101v-166h158v-114h-158v-165h91z" />
    <glyph glyph-name="Ntilde" unicode="&#xd1;" horiz-adv-x="696" 
d="M157 857q33 43 103 43q22 0 43.5 -6t55.5 -19q29 -12 50.5 -18.5t43.5 -6.5q63 0 102 50v-115q-33 -42 -102 -42q-25 0 -48.5 6.5t-54.5 19.5q-31 12 -50 18t-40 6q-61 0 -103 -51v115zM52 699h148l292 -452v452h152v-699h-147l-293 452v-452h-152v699z" />
    <glyph glyph-name="Ograve" unicode="&#xd2;" horiz-adv-x="810" 
d="M262 918h159l69 -176h-140zM215.5 31q-85.5 46 -134.5 128.5t-49 189.5t49 190t134.5 129t190.5 46t189.5 -46t133.5 -129t49 -190t-49 -189.5t-133.5 -128.5t-189.5 -46t-190.5 46zM515.5 152.5q49.5 27.5 78.5 78t29 118.5q0 67 -28.5 117.5t-78 78t-110.5 27.5
q-62 0 -111.5 -27.5t-78.5 -78t-29 -117.5q0 -68 29 -118.5t79 -78t111 -27.5q60 0 109.5 27.5z" />
    <glyph glyph-name="Oacute" unicode="&#xd3;" horiz-adv-x="810" 
d="M403 918h159l-89 -176h-139zM215.5 31q-85.5 46 -134.5 128.5t-49 189.5t49 190t134.5 129t190.5 46t189.5 -46t133.5 -129t49 -190t-49 -189.5t-133.5 -128.5t-189.5 -46t-190.5 46zM515.5 152.5q49.5 27.5 78.5 78t29 118.5q0 67 -28.5 117.5t-78 78t-110.5 27.5
q-62 0 -111.5 -27.5t-78.5 -78t-29 -117.5q0 -68 29 -118.5t79 -78t111 -27.5q60 0 109.5 27.5z" />
    <glyph glyph-name="Ocircumflex" unicode="&#xd4;" horiz-adv-x="810" 
d="M338 918h135l151 -176h-150l-68 92l-68 -92h-151zM215.5 31q-85.5 46 -134.5 128.5t-49 189.5t49 190t134.5 129t190.5 46t189.5 -46t133.5 -129t49 -190t-49 -189.5t-133.5 -128.5t-189.5 -46t-190.5 46zM515.5 152.5q49.5 27.5 78.5 78t29 118.5q0 67 -28.5 117.5
t-78 78t-110.5 27.5q-62 0 -111.5 -27.5t-78.5 -78t-29 -117.5q0 -68 29 -118.5t79 -78t111 -27.5q60 0 109.5 27.5z" />
    <glyph glyph-name="Otilde" unicode="&#xd5;" horiz-adv-x="810" 
d="M206 857q33 43 103 43q22 0 43.5 -6t55.5 -19q29 -12 50.5 -18.5t43.5 -6.5q63 0 102 50v-115q-33 -42 -102 -42q-25 0 -48.5 6.5t-54.5 19.5q-31 12 -50 18t-40 6q-61 0 -103 -51v115zM215.5 31q-85.5 46 -134.5 128.5t-49 189.5t49 190t134.5 129t190.5 46t189.5 -46
t133.5 -129t49 -190t-49 -189.5t-133.5 -128.5t-189.5 -46t-190.5 46zM515.5 152.5q49.5 27.5 78.5 78t29 118.5q0 67 -28.5 117.5t-78 78t-110.5 27.5q-62 0 -111.5 -27.5t-78.5 -78t-29 -117.5q0 -68 29 -118.5t79 -78t111 -27.5q60 0 109.5 27.5z" />
    <glyph glyph-name="Odieresis" unicode="&#xd6;" horiz-adv-x="810" 
d="M236 772.5q-21 20.5 -21 50.5t21.5 51t50.5 21t50 -21t21 -51t-21 -50.5t-50 -20.5q-30 0 -51 20.5zM472.5 772.5q-21.5 20.5 -21.5 50.5t21.5 51t51.5 21q29 0 50 -21t21 -51t-21 -50.5t-50 -20.5q-30 0 -51.5 20.5zM215.5 31q-85.5 46 -134.5 128.5t-49 189.5t49 190
t134.5 129t190.5 46t189.5 -46t133.5 -129t49 -190t-49 -189.5t-133.5 -128.5t-189.5 -46t-190.5 46zM515.5 152.5q49.5 27.5 78.5 78t29 118.5q0 67 -28.5 117.5t-78 78t-110.5 27.5q-62 0 -111.5 -27.5t-78.5 -78t-29 -117.5q0 -68 29 -118.5t79 -78t111 -27.5
q60 0 109.5 27.5z" />
    <glyph glyph-name="multiply" unicode="&#xd7;" horiz-adv-x="394" 
d="M197 221l-78 -78l-86 85l78 78l-79 80l86 85l78 -79l80 80l85 -86l-79 -79l79 -79l-85 -86z" />
    <glyph glyph-name="Oslash" unicode="&#xd8;" horiz-adv-x="810" 
d="M216 30q-85 46 -134.5 129t-49.5 190t49 190t134.5 129t190.5 46q39 0 81 -8l32 78h123l-47 -116q85 -46 134 -129t49 -190t-49 -189.5t-133.5 -128.5t-189.5 -46q-40 0 -83 8l-31 -79h-123zM433 570q-18 2 -27 2q-62 0 -111.5 -27.5t-78.5 -78t-29 -117.5
q0 -59 22 -105.5t62 -76.5zM515.5 152.5q49.5 27.5 78.5 78t29 118.5q0 58 -22.5 104.5t-61.5 75.5l-162 -403q10 -1 29 -1q60 0 109.5 27.5z" />
    <glyph glyph-name="Ugrave" unicode="&#xd9;" horiz-adv-x="711" 
d="M209 918h159l69 -176h-140zM125 65.5q-78 80.5 -78 216.5v417h152v-419q0 -76 42 -116t115 -40q72 0 113.5 40t41.5 116v419h152v-417q0 -136 -77 -216.5t-230 -80.5t-231 80.5z" />
    <glyph glyph-name="Uacute" unicode="&#xda;" horiz-adv-x="711" 
d="M354 918h159l-89 -176h-139zM125 65.5q-78 80.5 -78 216.5v417h152v-419q0 -76 42 -116t115 -40q72 0 113.5 40t41.5 116v419h152v-417q0 -136 -77 -216.5t-230 -80.5t-231 80.5z" />
    <glyph glyph-name="Ucircumflex" unicode="&#xdb;" horiz-adv-x="711" 
d="M288 918h135l151 -176h-150l-68 92l-68 -92h-151zM125 65.5q-78 80.5 -78 216.5v417h152v-419q0 -76 42 -116t115 -40q72 0 113.5 40t41.5 116v419h152v-417q0 -136 -77 -216.5t-230 -80.5t-231 80.5z" />
    <glyph glyph-name="Udieresis" unicode="&#xdc;" horiz-adv-x="711" 
d="M186 772.5q-21 20.5 -21 50.5t21.5 51t50.5 21t50 -21t21 -51t-21 -50.5t-50 -20.5q-30 0 -51 20.5zM422.5 772.5q-21.5 20.5 -21.5 50.5t21.5 51t51.5 21q29 0 50 -21t21 -51t-21 -50.5t-50 -20.5q-30 0 -51.5 20.5zM125 65.5q-78 80.5 -78 216.5v417h152v-419
q0 -76 42 -116t115 -40q72 0 113.5 40t41.5 116v419h152v-417q0 -136 -77 -216.5t-230 -80.5t-231 80.5z" />
    <glyph glyph-name="Yacute" unicode="&#xdd;" horiz-adv-x="738" 
d="M357 918h159l-89 -176h-139zM291 266l-256 433h162l169 -291l175 291h161l-262 -433v-266h-149v266z" />
    <glyph glyph-name="Thorn" unicode="&#xde;" horiz-adv-x="625" 
d="M52 699h152v-120h148q120 0 187.5 -57.5t67.5 -170.5t-67.5 -170t-187.5 -57h-148v-124h-152v699zM324 251q61 0 95 21.5t34 78.5q0 58 -34 79.5t-95 21.5h-120v-201h120z" />
    <glyph glyph-name="germandbls" unicode="&#xdf;" horiz-adv-x="648" 
d="M259 3v132q36 -21 98 -21q49 0 76.5 29.5t27.5 78.5q0 50 -29.5 73.5t-88.5 23.5h-55v114h44q87 0 87 93q0 40 -27.5 63.5t-75.5 23.5q-56 0 -86.5 -26t-30.5 -80v-507h-152v493q0 117 69 184t199 67q89 0 146.5 -31.5t84.5 -81.5t27 -107q0 -47 -20.5 -86t-58.5 -59
q121 -41 121 -174q0 -103 -58 -161.5t-170 -58.5q-84 0 -128 18z" />
    <glyph glyph-name="agrave" unicode="&#xe0;" horiz-adv-x="585" 
d="M173 711h159l69 -176h-140zM87.5 29.5q-55.5 44.5 -55.5 121.5q0 80 53 124.5t150 44.5q43 0 82 -9t69 -25v12q0 45 -32 66t-98 21q-88 0 -162 -33v110q32 14 83 23.5t102 9.5q130 0 194 -53.5t64 -149.5v-292h-142v44q-61 -59 -164 -59q-88 0 -143.5 44.5zM339 99
q30 14 47 39v48q-51 34 -112 34q-42 0 -64.5 -17.5t-22.5 -51.5q0 -32 22 -49t63 -17q37 0 67 14z" />
    <glyph glyph-name="aacute" unicode="&#xe1;" horiz-adv-x="585" 
d="M295 711h159l-89 -176h-139zM87.5 29.5q-55.5 44.5 -55.5 121.5q0 80 53 124.5t150 44.5q43 0 82 -9t69 -25v12q0 45 -32 66t-98 21q-88 0 -162 -33v110q32 14 83 23.5t102 9.5q130 0 194 -53.5t64 -149.5v-292h-142v44q-61 -59 -164 -59q-88 0 -143.5 44.5zM339 99
q30 14 47 39v48q-51 34 -112 34q-42 0 -64.5 -17.5t-22.5 -51.5q0 -32 22 -49t63 -17q37 0 67 14z" />
    <glyph glyph-name="acircumflex" unicode="&#xe2;" horiz-adv-x="585" 
d="M240 711h135l151 -176h-150l-68 92l-68 -92h-151zM87.5 29.5q-55.5 44.5 -55.5 121.5q0 80 53 124.5t150 44.5q43 0 82 -9t69 -25v12q0 45 -32 66t-98 21q-88 0 -162 -33v110q32 14 83 23.5t102 9.5q130 0 194 -53.5t64 -149.5v-292h-142v44q-61 -59 -164 -59
q-88 0 -143.5 44.5zM339 99q30 14 47 39v48q-51 34 -112 34q-42 0 -64.5 -17.5t-22.5 -51.5q0 -32 22 -49t63 -17q37 0 67 14z" />
    <glyph glyph-name="atilde" unicode="&#xe3;" horiz-adv-x="585" 
d="M119 650q33 43 103 43q22 0 43.5 -6t55.5 -19q29 -12 50.5 -18.5t43.5 -6.5q63 0 102 50v-115q-33 -42 -102 -42q-25 0 -48.5 6.5t-54.5 19.5q-31 12 -50 18t-40 6q-61 0 -103 -51v115zM87.5 29.5q-55.5 44.5 -55.5 121.5q0 80 53 124.5t150 44.5q43 0 82 -9t69 -25v12
q0 45 -32 66t-98 21q-88 0 -162 -33v110q32 14 83 23.5t102 9.5q130 0 194 -53.5t64 -149.5v-292h-142v44q-61 -59 -164 -59q-88 0 -143.5 44.5zM339 99q30 14 47 39v48q-51 34 -112 34q-42 0 -64.5 -17.5t-22.5 -51.5q0 -32 22 -49t63 -17q37 0 67 14z" />
    <glyph glyph-name="adieresis" unicode="&#xe4;" horiz-adv-x="585" 
d="M132 565.5q-21 20.5 -21 50.5t21.5 51t50.5 21t50 -21t21 -51t-21 -50.5t-50 -20.5q-30 0 -51 20.5zM368.5 565.5q-21.5 20.5 -21.5 50.5t21.5 51t51.5 21q29 0 50 -21t21 -51t-21 -50.5t-50 -20.5q-30 0 -51.5 20.5zM87.5 29.5q-55.5 44.5 -55.5 121.5q0 80 53 124.5
t150 44.5q43 0 82 -9t69 -25v12q0 45 -32 66t-98 21q-88 0 -162 -33v110q32 14 83 23.5t102 9.5q130 0 194 -53.5t64 -149.5v-292h-142v44q-61 -59 -164 -59q-88 0 -143.5 44.5zM339 99q30 14 47 39v48q-51 34 -112 34q-42 0 -64.5 -17.5t-22.5 -51.5q0 -32 22 -49t63 -17
q37 0 67 14z" />
    <glyph glyph-name="aring" unicode="&#xe5;" horiz-adv-x="585" 
d="M246.5 552.5q-30.5 17.5 -48.5 48t-18 66.5t18 66.5t48.5 48t66.5 17.5t66.5 -18t48.5 -48t18 -66t-18 -66.5t-48.5 -48t-66.5 -17.5t-66.5 17.5zM347 632.5q14 14.5 14 34.5t-14 34t-34 14t-34.5 -14t-14.5 -34t14.5 -34.5t34.5 -14.5t34 14.5zM87.5 29.5
q-55.5 44.5 -55.5 121.5q0 80 53 124.5t150 44.5q43 0 82 -9t69 -25v12q0 45 -32 66t-98 21q-88 0 -162 -33v110q32 14 83 23.5t102 9.5q130 0 194 -53.5t64 -149.5v-292h-142v44q-61 -59 -164 -59q-88 0 -143.5 44.5zM339 99q30 14 47 39v48q-51 34 -112 34
q-42 0 -64.5 -17.5t-22.5 -51.5q0 -32 22 -49t63 -17q37 0 67 14z" />
    <glyph glyph-name="ae" unicode="&#xe6;" horiz-adv-x="964" 
d="M88.5 29q-56.5 44 -56.5 122q0 80 53.5 124.5t149.5 44.5q43 0 82 -9t69 -25v12q0 45 -32 66t-98 21q-88 0 -162 -33v110q32 14 83 23.5t102 9.5q124 0 192 -66q34 31 83.5 48.5t109.5 17.5q86 0 146 -32t91 -88.5t31 -127.5v-59h-395q17 -94 171 -94q46 0 95 8t85 22
v-106q-35 -15 -89 -24t-109 -9q-69 0 -125 19t-96 55q-43 -36 -95.5 -55t-131.5 -19q-97 0 -153.5 44zM789 283q-3 49 -36 75.5t-91 26.5q-57 0 -89.5 -27.5t-35.5 -74.5h252zM339 98.5q30 13.5 47 37.5v50q-51 34 -112 34q-42 0 -64.5 -17.5t-22.5 -51.5q0 -32 22 -49
t63 -17q37 0 67 13.5z" />
    <glyph glyph-name="ccedilla" unicode="&#xe7;" horiz-adv-x="543" 
d="M388 -10l-15 -39q43 -6 66 -30.5t23 -66.5q0 -50 -40.5 -76t-111.5 -26q-31 0 -59 3.5t-43 9.5l1 77q10 -6 26.5 -9.5t32.5 -3.5q55 0 55 37q0 47 -99 47l30 76q-104 15 -163 79.5t-59 170.5q0 121 77.5 188.5t207.5 67.5q118 0 188 -44v-119q-32 23 -74.5 34t-89.5 11
q-70 0 -112 -34t-42 -104t41.5 -103.5t111.5 -33.5q97 0 171 47v-118q-50 -32 -123 -41z" />
    <glyph glyph-name="egrave" unicode="&#xe8;" horiz-adv-x="604" 
d="M165 711h159l69 -176h-140zM111 51.5q-79 66.5 -79 186.5q0 119 70.5 188t201.5 69q86 0 146 -32t91 -88.5t31 -127.5v-61h-396q16 -92 172 -92q46 0 95 8t85 22v-106q-35 -15 -90 -24t-110 -9q-138 0 -217 66.5zM429 284q-3 48 -36 74.5t-91 26.5q-57 0 -90 -27t-36 -74
h253z" />
    <glyph glyph-name="eacute" unicode="&#xe9;" horiz-adv-x="604" 
d="M298 711h159l-89 -176h-139zM111 51.5q-79 66.5 -79 186.5q0 119 70.5 188t201.5 69q86 0 146 -32t91 -88.5t31 -127.5v-61h-396q16 -92 172 -92q46 0 95 8t85 22v-106q-35 -15 -90 -24t-110 -9q-138 0 -217 66.5zM429 284q-3 48 -36 74.5t-91 26.5q-57 0 -90 -27
t-36 -74h253z" />
    <glyph glyph-name="ecircumflex" unicode="&#xea;" horiz-adv-x="613" 
d="M252 711h135l151 -176h-150l-68 92l-68 -92h-151zM120 51.5q-79 66.5 -79 186.5q0 119 70.5 188t201.5 69q86 0 146 -32t91 -88.5t31 -127.5v-61h-396q16 -92 172 -92q46 0 95 8t85 22v-106q-35 -15 -90 -24t-110 -9q-138 0 -217 66.5zM438 284q-3 48 -36 74.5t-91 26.5
q-57 0 -90 -27t-36 -74h253z" />
    <glyph glyph-name="edieresis" unicode="&#xeb;" horiz-adv-x="604" 
d="M141 565.5q-21 20.5 -21 50.5t21.5 51t50.5 21t50 -21t21 -51t-21 -50.5t-50 -20.5q-30 0 -51 20.5zM377.5 565.5q-21.5 20.5 -21.5 50.5t21.5 51t51.5 21q29 0 50 -21t21 -51t-21 -50.5t-50 -20.5q-30 0 -51.5 20.5zM111 51.5q-79 66.5 -79 186.5q0 119 70.5 188
t201.5 69q86 0 146 -32t91 -88.5t31 -127.5v-61h-396q16 -92 172 -92q46 0 95 8t85 22v-106q-35 -15 -90 -24t-110 -9q-138 0 -217 66.5zM429 284q-3 48 -36 74.5t-91 26.5q-57 0 -90 -27t-36 -74h253z" />
    <glyph glyph-name="igrave" unicode="&#xec;" horiz-adv-x="257" 
d="M-28 711h159l69 -176h-140zM52 480h152v-480h-152v480z" />
    <glyph glyph-name="iacute" unicode="&#xed;" horiz-adv-x="257" 
d="M124 711h159l-89 -176h-139zM52 480h152v-480h-152v480z" />
    <glyph glyph-name="icircumflex" unicode="&#xee;" horiz-adv-x="257" 
d="M61 711h135l151 -176h-150l-68 92l-68 -92h-151zM52 480h152v-480h-152v480z" />
    <glyph glyph-name="idieresis" unicode="&#xef;" horiz-adv-x="257" 
d="M-41 565.5q-21 20.5 -21 50.5t21.5 51t50.5 21t50 -21t21 -51t-21 -50.5t-50 -20.5q-30 0 -51 20.5zM195.5 565.5q-21.5 20.5 -21.5 50.5t21.5 51t51.5 21q29 0 50 -21t21 -51t-21 -50.5t-50 -20.5q-30 0 -51.5 20.5zM52 480h152v-480h-152v480z" />
    <glyph glyph-name="eth" unicode="&#xf0;" horiz-adv-x="631" 
d="M154 15.5q-61 30.5 -91.5 84t-30.5 123.5q0 109 69 170.5t189 61.5q45 0 87 -14t70 -40q-5 89 -44 140l-130 -66v76l70 36q-28 11 -62 11q-33 0 -69 -6t-58 -16v121q25 7 62 12t67 5q114 0 190 -61l116 59v-75l-69 -35q71 -99 71 -278q0 -108 -36 -184t-101 -115.5
t-151 -39.5q-88 0 -149 30.5zM393 134.5q32 34.5 32 85.5q0 53 -33 86t-84 33q-54 0 -87.5 -32.5t-33.5 -86.5q0 -55 33.5 -87.5t87.5 -32.5q53 0 85 34.5z" />
    <glyph glyph-name="ntilde" unicode="&#xf1;" horiz-adv-x="615" 
d="M106 650q33 43 103 43q22 0 43.5 -6t55.5 -19q29 -12 50.5 -18.5t43.5 -6.5q63 0 102 50v-115q-33 -42 -102 -42q-25 0 -48.5 6.5t-54.5 19.5q-31 12 -50 18t-40 6q-61 0 -103 -51v115zM52 480h146v-59q33 37 78.5 55.5t95.5 18.5q98 0 146.5 -52.5t48.5 -141.5v-301
h-151v284q0 93 -86 93q-38 0 -71 -18.5t-56 -54.5v-304h-151v480z" />
    <glyph glyph-name="ograve" unicode="&#xf2;" horiz-adv-x="642" 
d="M178 711h159l69 -176h-140zM168.5 16.5q-65.5 31.5 -101 89t-35.5 134.5q0 75 35.5 133t101 90t152.5 32q86 0 151.5 -32t101 -90t35.5 -133q0 -77 -35.5 -134.5t-100.5 -89t-152 -31.5t-152.5 31.5zM418 140.5q36 37.5 36 99.5q0 64 -35.5 100.5t-97.5 36.5t-98 -36.5
t-36 -100.5q0 -62 36.5 -99.5t97.5 -37.5t97 37.5z" />
    <glyph glyph-name="oacute" unicode="&#xf3;" horiz-adv-x="642" 
d="M320 711h159l-89 -176h-139zM168.5 16.5q-65.5 31.5 -101 89t-35.5 134.5q0 75 35.5 133t101 90t152.5 32q86 0 151.5 -32t101 -90t35.5 -133q0 -77 -35.5 -134.5t-100.5 -89t-152 -31.5t-152.5 31.5zM418 140.5q36 37.5 36 99.5q0 64 -35.5 100.5t-97.5 36.5t-98 -36.5
t-36 -100.5q0 -62 36.5 -99.5t97.5 -37.5t97 37.5z" />
    <glyph glyph-name="ocircumflex" unicode="&#xf4;" horiz-adv-x="662" 
d="M274 711h135l151 -176h-150l-68 92l-68 -92h-151zM188.5 16.5q-65.5 31.5 -101 89t-35.5 134.5q0 75 35.5 133t101 90t152.5 32q86 0 151.5 -32t101 -90t35.5 -133q0 -77 -35.5 -134.5t-100.5 -89t-152 -31.5t-152.5 31.5zM438 140.5q36 37.5 36 99.5q0 64 -35.5 100.5
t-97.5 36.5t-98 -36.5t-36 -100.5q0 -62 36.5 -99.5t97.5 -37.5t97 37.5z" />
    <glyph glyph-name="otilde" unicode="&#xf5;" horiz-adv-x="656" 
d="M136 650q33 43 103 43q22 0 43.5 -6t55.5 -19q29 -12 50.5 -18.5t43.5 -6.5q63 0 102 50v-115q-33 -42 -102 -42q-25 0 -48.5 6.5t-54.5 19.5q-31 12 -50 18t-40 6q-61 0 -103 -51v115zM182.5 16.5q-65.5 31.5 -101 89t-35.5 134.5q0 75 35.5 133t101 90t152.5 32
q86 0 151.5 -32t101 -90t35.5 -133q0 -77 -35.5 -134.5t-100.5 -89t-152 -31.5t-152.5 31.5zM432 140.5q36 37.5 36 99.5q0 64 -35.5 100.5t-97.5 36.5t-98 -36.5t-36 -100.5q0 -62 36.5 -99.5t97.5 -37.5t97 37.5z" />
    <glyph glyph-name="odieresis" unicode="&#xf6;" horiz-adv-x="651" 
d="M161 565.5q-21 20.5 -21 50.5t21.5 51t50.5 21t50 -21t21 -51t-21 -50.5t-50 -20.5q-30 0 -51 20.5zM397.5 565.5q-21.5 20.5 -21.5 50.5t21.5 51t51.5 21q29 0 50 -21t21 -51t-21 -50.5t-50 -20.5q-30 0 -51.5 20.5zM177.5 16.5q-65.5 31.5 -101 89t-35.5 134.5
q0 75 35.5 133t101 90t152.5 32q86 0 151.5 -32t101 -90t35.5 -133q0 -77 -35.5 -134.5t-100.5 -89t-152 -31.5t-152.5 31.5zM427 140.5q36 37.5 36 99.5q0 64 -35.5 100.5t-97.5 36.5t-98 -36.5t-36 -100.5q0 -62 36.5 -99.5t97.5 -37.5t97 37.5z" />
    <glyph glyph-name="divide" unicode="&#xf7;" horiz-adv-x="409" 
d="M160 409.5q-18 17.5 -18 42.5q0 26 17.5 44t43.5 18t43.5 -18t17.5 -44q0 -25 -18 -42.5t-43 -17.5t-43 17.5zM32 361h344v-120h-344v120zM160 104.5q-18 17.5 -18 42.5q0 26 17.5 44t43.5 18t43.5 -18t17.5 -44q0 -25 -18 -42.5t-43 -17.5t-43 17.5z" />
    <glyph glyph-name="oslash" unicode="&#xf8;" horiz-adv-x="642" 
d="M169 16q-65 31 -101 89t-36 135q0 75 35.5 133t101 90t152.5 32q14 0 40 -2l29 73h119l-41 -101q67 -31 104 -89.5t37 -135.5t-35.5 -134.5t-100.5 -89t-152 -31.5q-22 0 -45 3l-29 -74h-119zM314 377q-59 -2 -93 -39t-34 -98q0 -58 33 -96zM418.5 141q35.5 37 35.5 99
q0 64 -36 100l-95 -237q60 1 95.5 38z" />
    <glyph glyph-name="ugrave" unicode="&#xf9;" horiz-adv-x="615" 
d="M162 711h159l69 -176h-140zM96 38.5q-49 53.5 -49 142.5v299h151v-283q0 -94 87 -94q38 0 71 18t55 54v305h151v-480h-146v58q-32 -37 -77.5 -55t-95.5 -18q-98 0 -147 53.5z" />
    <glyph glyph-name="uacute" unicode="&#xfa;" horiz-adv-x="615" 
d="M299 711h159l-89 -176h-139zM96 38.5q-49 53.5 -49 142.5v299h151v-283q0 -94 87 -94q38 0 71 18t55 54v305h151v-480h-146v58q-32 -37 -77.5 -55t-95.5 -18q-98 0 -147 53.5z" />
    <glyph glyph-name="ucircumflex" unicode="&#xfb;" horiz-adv-x="615" 
d="M236 711h135l151 -176h-150l-68 92l-68 -92h-151zM96 38.5q-49 53.5 -49 142.5v299h151v-283q0 -94 87 -94q38 0 71 18t55 54v305h151v-480h-146v58q-32 -37 -77.5 -55t-95.5 -18q-98 0 -147 53.5z" />
    <glyph glyph-name="udieresis" unicode="&#xfc;" horiz-adv-x="615" 
d="M136 565.5q-21 20.5 -21 50.5t21.5 51t50.5 21t50 -21t21 -51t-21 -50.5t-50 -20.5q-30 0 -51 20.5zM372.5 565.5q-21.5 20.5 -21.5 50.5t21.5 51t51.5 21q29 0 50 -21t21 -51t-21 -50.5t-50 -20.5q-30 0 -51.5 20.5zM96 38.5q-49 53.5 -49 142.5v299h151v-283
q0 -94 87 -94q38 0 71 18t55 54v305h151v-480h-146v58q-32 -37 -77.5 -55t-95.5 -18q-98 0 -147 53.5z" />
    <glyph glyph-name="yacute" unicode="&#xfd;" horiz-adv-x="612" 
d="M308 711h159l-89 -176h-139zM122.5 -194q-31.5 4 -47.5 11v113q29 -11 64 -11q36 0 54.5 16t30.5 50l16 41l-208 454h152l136 -331l129 331h151l-204 -513q-34 -85 -84 -125t-128 -40q-30 0 -61.5 4z" />
    <glyph glyph-name="thorn" unicode="&#xfe;" horiz-adv-x="665" 
d="M52 699h151v-262q32 28 78 43t97 15q75 0 132.5 -31.5t89.5 -89t32 -133.5q0 -75 -32 -133t-89.5 -90.5t-132.5 -32.5q-51 0 -97 15t-78 43v-262h-151v918zM439.5 141q38.5 38 38.5 100t-38.5 99t-99.5 37q-47 0 -84 -25t-53 -66v-91q15 -42 52.5 -67t84.5 -25
q61 0 99.5 38z" />
    <glyph glyph-name="ydieresis" unicode="&#xff;" horiz-adv-x="612" 
d="M153 565.5q-21 20.5 -21 50.5t21.5 51t50.5 21t50 -21t21 -51t-21 -50.5t-50 -20.5q-30 0 -51 20.5zM389.5 565.5q-21.5 20.5 -21.5 50.5t21.5 51t51.5 21q29 0 50 -21t21 -51t-21 -50.5t-50 -20.5q-30 0 -51.5 20.5zM122.5 -194q-31.5 4 -47.5 11v113q29 -11 64 -11
q36 0 54.5 16t30.5 50l16 41l-208 454h152l136 -331l129 331h151l-204 -513q-34 -85 -84 -125t-128 -40q-30 0 -61.5 4z" />
    <glyph glyph-name="Amacron" unicode="&#x100;" horiz-adv-x="772" 
d="M219 850h334v-98h-334v98zM312 699h149l279 -699h-155l-60 152h-277l-60 -152h-156zM485 273l-99 266l-99 -266h198z" />
    <glyph glyph-name="amacron" unicode="&#x101;" horiz-adv-x="585" 
d="M144 643h334v-98h-334v98zM87.5 29.5q-55.5 44.5 -55.5 121.5q0 80 53 124.5t150 44.5q43 0 82 -9t69 -25v12q0 45 -32 66t-98 21q-88 0 -162 -33v110q32 14 83 23.5t102 9.5q130 0 194 -53.5t64 -149.5v-292h-142v44q-61 -59 -164 -59q-88 0 -143.5 44.5zM339 99
q30 14 47 39v48q-51 34 -112 34q-42 0 -64.5 -17.5t-22.5 -51.5q0 -32 22 -49t63 -17q37 0 67 14z" />
    <glyph glyph-name="Abreve" unicode="&#x102;" horiz-adv-x="772" 
d="M259.5 786q-45.5 44 -45.5 118h113q0 -31 15 -47.5t44 -16.5q28 0 43.5 16.5t15.5 47.5h113q0 -74 -45.5 -118t-126.5 -44t-126.5 44zM312 699h149l279 -699h-155l-60 152h-277l-60 -152h-156zM485 273l-99 266l-99 -266h198z" />
    <glyph glyph-name="abreve" unicode="&#x103;" horiz-adv-x="585" 
d="M188.5 579q-45.5 44 -45.5 118h113q0 -31 15 -47.5t44 -16.5q28 0 43.5 16.5t15.5 47.5h113q0 -74 -45.5 -118t-126.5 -44t-126.5 44zM87.5 29.5q-55.5 44.5 -55.5 121.5q0 80 53 124.5t150 44.5q43 0 82 -9t69 -25v12q0 45 -32 66t-98 21q-88 0 -162 -33v110
q32 14 83 23.5t102 9.5q130 0 194 -53.5t64 -149.5v-292h-142v44q-61 -59 -164 -59q-88 0 -143.5 44.5zM339 99q30 14 47 39v48q-51 34 -112 34q-42 0 -64.5 -17.5t-22.5 -51.5q0 -32 22 -49t63 -17q37 0 67 14z" />
    <glyph glyph-name="Aogonek" unicode="&#x104;" horiz-adv-x="772" 
d="M653 -118.5q10 -9.5 27 -9.5q26 0 48 11v-84q-40 -14 -95 -14q-54 0 -87.5 24t-33.5 71q0 38 19.5 68.5t52.5 51.5h1l-60 152h-277l-60 -152h-156l280 699h149l279 -699h-18q-40 -23 -59.5 -45t-19.5 -47q0 -17 10 -26.5zM485 273l-99 266l-99 -266h198z" />
    <glyph glyph-name="aogonek" unicode="&#x105;" horiz-adv-x="590" 
d="M545 -117v-84q-40 -14 -95 -14q-54 0 -87.5 24t-33.5 71q0 38 19.5 68.5t52.5 51.5h-6v44q-61 -59 -164 -59q-88 0 -143.5 44.5t-55.5 121.5q0 80 53 124.5t150 44.5q43 0 82 -9t69 -25v12q0 45 -32 66t-98 21q-88 0 -162 -33v110q32 14 83 23.5t102 9.5q130 0 194 -53.5
t64 -149.5v-292h2q-40 -23 -59.5 -45t-19.5 -47q0 -17 10 -26.5t27 -9.5q26 0 48 11zM386 186q-51 34 -112 34q-42 0 -64.5 -17.5t-22.5 -51.5q0 -32 22 -49t63 -17q37 0 67 14t47 39v48z" />
    <glyph glyph-name="Cacute" unicode="&#x106;" horiz-adv-x="693" 
d="M403 918h159l-89 -176h-139zM212 29.5q-86 44.5 -133 126.5t-47 193t47 193.5t133 127t198 44.5q145 0 242 -66v-144q-44 37 -100.5 53.5t-128.5 16.5q-109 0 -172.5 -60.5t-63.5 -164.5q0 -105 64 -165.5t172 -60.5q74 0 131 17.5t106 56.5v-144q-92 -68 -250 -68
q-112 0 -198 44.5z" />
    <glyph glyph-name="cacute" unicode="&#x107;" horiz-adv-x="543" 
d="M317 711h159l-89 -176h-139zM109 51.5q-77 66.5 -77 187.5t77.5 188.5t207.5 67.5q118 0 188 -44v-119q-32 23 -74.5 34t-89.5 11q-70 0 -112 -34t-42 -104t41.5 -103.5t111.5 -33.5q97 0 171 47v-118q-74 -46 -195 -46q-130 0 -207 66.5z" />
    <glyph glyph-name="Ccircumflex" unicode="&#x108;" horiz-adv-x="693" 
d="M331 918h135l151 -176h-150l-68 92l-68 -92h-151zM212 29.5q-86 44.5 -133 126.5t-47 193t47 193.5t133 127t198 44.5q145 0 242 -66v-144q-44 37 -100.5 53.5t-128.5 16.5q-109 0 -172.5 -60.5t-63.5 -164.5q0 -105 64 -165.5t172 -60.5q74 0 131 17.5t106 56.5v-144
q-92 -68 -250 -68q-112 0 -198 44.5z" />
    <glyph glyph-name="ccircumflex" unicode="&#x109;" horiz-adv-x="538" 
d="M241 711h135l151 -176h-150l-68 92l-68 -92h-151zM109 51.5q-77 66.5 -77 187.5t77.5 188.5t207.5 67.5q118 0 188 -44v-119q-32 23 -74.5 34t-89.5 11q-70 0 -112 -34t-42 -104t41.5 -103.5t111.5 -33.5q97 0 171 47v-118q-74 -46 -195 -46q-130 0 -207 66.5z" />
    <glyph glyph-name="Cdotaccent" unicode="&#x10a;" horiz-adv-x="693" 
d="M354.5 772.5q-21.5 20.5 -21.5 50.5t21.5 51t51.5 21q29 0 50 -21t21 -51t-21 -50.5t-50 -20.5q-30 0 -51.5 20.5zM212 29.5q-86 44.5 -133 126.5t-47 193t47 193.5t133 127t198 44.5q145 0 242 -66v-144q-44 37 -100.5 53.5t-128.5 16.5q-109 0 -172.5 -60.5
t-63.5 -164.5q0 -105 64 -165.5t172 -60.5q74 0 131 17.5t106 56.5v-144q-92 -68 -250 -68q-112 0 -198 44.5z" />
    <glyph glyph-name="cdotaccent" unicode="&#x10b;" horiz-adv-x="543" 
d="M262.5 565.5q-21.5 20.5 -21.5 50.5t21.5 51t51.5 21q29 0 50 -21t21 -51t-21 -50.5t-50 -20.5q-30 0 -51.5 20.5zM109 51.5q-77 66.5 -77 187.5t77.5 188.5t207.5 67.5q118 0 188 -44v-119q-32 23 -74.5 34t-89.5 11q-70 0 -112 -34t-42 -104t41.5 -103.5t111.5 -33.5
q97 0 171 47v-118q-74 -46 -195 -46q-130 0 -207 66.5z" />
    <glyph glyph-name="Ccaron" unicode="&#x10c;" horiz-adv-x="686" 
d="M186 918h151l68 -92l68 92h150l-151 -176h-135zM212 29.5q-86 44.5 -133 126.5t-47 193t47 193.5t133 127t198 44.5q145 0 242 -66v-144q-44 37 -100.5 53.5t-128.5 16.5q-109 0 -172.5 -60.5t-63.5 -164.5q0 -105 64 -165.5t172 -60.5q74 0 131 17.5t106 56.5v-144
q-92 -68 -250 -68q-112 0 -198 44.5z" />
    <glyph glyph-name="ccaron" unicode="&#x10d;" horiz-adv-x="539" 
d="M82 711h151l68 -92l68 92h150l-151 -176h-135zM109 51.5q-77 66.5 -77 187.5t77.5 188.5t207.5 67.5q118 0 188 -44v-119q-32 23 -74.5 34t-89.5 11q-70 0 -112 -34t-42 -104t41.5 -103.5t111.5 -33.5q97 0 171 47v-118q-74 -46 -195 -46q-130 0 -207 66.5z" />
    <glyph glyph-name="Dcaron" unicode="&#x10e;" horiz-adv-x="703" 
d="M109 918h151l68 -92l68 92h150l-151 -176h-135zM52 699h243q114 0 199 -42t131 -120t46 -184q0 -174 -101.5 -263.5t-282.5 -89.5h-235v699zM295 127q107 0 164 60t57 166q0 63 -25 113t-73 78t-113 28h-101v-445h91z" />
    <glyph glyph-name="dcaron" unicode="&#x10f;" horiz-adv-x="735" 
d="M721 769h126l-95 -191h-111zM154.5 8.5q-57.5 31.5 -90 89.5t-32.5 134t32 133.5t90 89.5t132 32q55 0 102.5 -20t73.5 -56v320h151v-739h-146v68q-29 -39 -77 -61t-104 -22q-74 0 -131.5 31.5zM409.5 118q36.5 23 52.5 65v98q-15 41 -52 64.5t-85 23.5q-60 0 -98.5 -37
t-38.5 -101q0 -63 38.5 -99.5t98.5 -36.5q48 0 84.5 23z" />
    <glyph glyph-name="Dcroat" unicode="&#x110;" horiz-adv-x="733" 
d="M82 292h-55v114h55v293h243q114 0 199 -42t131 -120t46 -184q0 -174 -101.5 -263.5t-282.5 -89.5h-235v292zM325 127q107 0 164 60t57 166q0 63 -25 113t-73 78t-113 28h-101v-166h158v-114h-158v-165h91z" />
    <glyph glyph-name="dcroat" unicode="&#x111;" horiz-adv-x="681" 
d="M154.5 16.5q-57.5 31.5 -90 89t-32.5 133.5q0 75 32 133t90 90.5t132 32.5q54 0 99 -15t76 -43v108h-162v113h162v81h151v-81h51v-113h-51v-545h-146v52q-37 -35 -80.5 -51t-99.5 -16q-74 0 -131.5 31.5zM408.5 127q36.5 25 52.5 67v91q-14 41 -51.5 66.5t-84.5 25.5
q-61 0 -99.5 -38t-38.5 -100t38.5 -99.5t99.5 -37.5q47 0 83.5 25z" />
    <glyph glyph-name="Emacron" unicode="&#x112;" horiz-adv-x="569" 
d="M139 850h334v-98h-334v98zM52 699h485v-127h-333v-162h245v-122h-245v-161h333v-127h-485v699z" />
    <glyph glyph-name="emacron" unicode="&#x113;" horiz-adv-x="604" 
d="M147 643h334v-98h-334v98zM111 51.5q-79 66.5 -79 186.5q0 119 70.5 188t201.5 69q86 0 146 -32t91 -88.5t31 -127.5v-61h-396q16 -92 172 -92q46 0 95 8t85 22v-106q-35 -15 -90 -24t-110 -9q-138 0 -217 66.5zM429 284q-3 48 -36 74.5t-91 26.5q-57 0 -90 -27t-36 -74
h253z" />
    <glyph glyph-name="Ebreve" unicode="&#x114;" horiz-adv-x="569" 
d="M182.5 786q-45.5 44 -45.5 118h113q0 -31 15 -47.5t44 -16.5q28 0 43.5 16.5t15.5 47.5h113q0 -74 -45.5 -118t-126.5 -44t-126.5 44zM52 699h485v-127h-333v-162h245v-122h-245v-161h333v-127h-485v699z" />
    <glyph glyph-name="ebreve" unicode="&#x115;" horiz-adv-x="604" 
d="M188.5 579q-45.5 44 -45.5 118h113q0 -31 15 -47.5t44 -16.5q28 0 43.5 16.5t15.5 47.5h113q0 -74 -45.5 -118t-126.5 -44t-126.5 44zM111 51.5q-79 66.5 -79 186.5q0 119 70.5 188t201.5 69q86 0 146 -32t91 -88.5t31 -127.5v-61h-396q16 -92 172 -92q46 0 95 8t85 22
v-106q-35 -15 -90 -24t-110 -9q-138 0 -217 66.5zM429 284q-3 48 -36 74.5t-91 26.5q-57 0 -90 -27t-36 -74h253z" />
    <glyph glyph-name="Edotaccent" unicode="&#x116;" horiz-adv-x="569" 
d="M255.5 772.5q-21.5 20.5 -21.5 50.5t21.5 51t51.5 21q29 0 50 -21t21 -51t-21 -50.5t-50 -20.5q-30 0 -51.5 20.5zM52 699h485v-127h-333v-162h245v-122h-245v-161h333v-127h-485v699z" />
    <glyph glyph-name="edotaccent" unicode="&#x117;" horiz-adv-x="604" 
d="M258.5 565.5q-21.5 20.5 -21.5 50.5t21.5 51t51.5 21q29 0 50 -21t21 -51t-21 -50.5t-50 -20.5q-30 0 -51.5 20.5zM111 51.5q-79 66.5 -79 186.5q0 119 70.5 188t201.5 69q86 0 146 -32t91 -88.5t31 -127.5v-61h-396q16 -92 172 -92q46 0 95 8t85 22v-106
q-35 -15 -90 -24t-110 -9q-138 0 -217 66.5zM429 284q-3 48 -36 74.5t-91 26.5q-57 0 -90 -27t-36 -74h253z" />
    <glyph glyph-name="Eogonek" unicode="&#x118;" horiz-adv-x="574" 
d="M541 -117v-84q-40 -14 -95 -14q-54 0 -87.5 24t-33.5 71q0 38 19.5 68.5t52.5 51.5h-345v699h485v-127h-333v-162h245v-122h-245v-161h333v-127h-2q-40 -23 -59.5 -45t-19.5 -47q0 -17 10 -26.5t27 -9.5q26 0 48 11z" />
    <glyph glyph-name="eogonek" unicode="&#x119;" horiz-adv-x="604" 
d="M572 186h-396q16 -92 172 -92q46 0 95 8t85 22v-106q-28 -12 -73 -21q-38 -22 -56 -43.5t-18 -45.5q0 -17 10 -26.5t27 -9.5q26 0 48 11v-84q-40 -14 -95 -14q-54 0 -87.5 24t-33.5 71q0 62 52 106q-127 6 -198.5 72t-71.5 180q0 119 70.5 188t201.5 69q86 0 146 -32
t91 -88.5t31 -127.5v-61zM429 284q-3 48 -36 74.5t-91 26.5q-57 0 -90 -27t-36 -74h253z" />
    <glyph glyph-name="Ecaron" unicode="&#x11a;" horiz-adv-x="569" 
d="M91 918h151l68 -92l68 92h150l-151 -176h-135zM52 699h485v-127h-333v-162h245v-122h-245v-161h333v-127h-485v699z" />
    <glyph glyph-name="ecaron" unicode="&#x11b;" horiz-adv-x="615" 
d="M105 711h151l68 -92l68 92h150l-151 -176h-135zM121 51.5q-79 66.5 -79 186.5q0 119 70.5 188t201.5 69q86 0 146 -32t91 -88.5t31 -127.5v-61h-396q16 -92 172 -92q46 0 95 8t85 22v-106q-35 -15 -90 -24t-110 -9q-138 0 -217 66.5zM439 284q-3 48 -36 74.5t-91 26.5
q-57 0 -90 -27t-36 -74h253z" />
    <glyph glyph-name="Gcircumflex" unicode="&#x11c;" horiz-adv-x="704" 
d="M335 918h135l151 -176h-150l-68 92l-68 -92h-151zM212 29.5q-86 44.5 -133 126.5t-47 193t47 193.5t133 127t198 44.5q76 0 134.5 -15.5t107.5 -48.5v-145q-44 36 -100.5 52.5t-128.5 16.5q-67 0 -120.5 -27.5t-84.5 -78.5t-31 -119q0 -69 28.5 -120.5t80.5 -79.5
t120 -28q62 0 108 22v135h-113v112h260v-337q-99 -68 -261 -68q-112 0 -198 44.5z" />
    <glyph glyph-name="gcircumflex" unicode="&#x11d;" horiz-adv-x="665" 
d="M285 711h135l151 -176h-150l-68 92l-68 -92h-151zM213.5 -221q-48.5 9 -81.5 24v111q77 -34 178 -34q81 0 116 33t35 99v30q-31 -28 -76 -42.5t-96 -14.5q-74 0 -132.5 32.5t-91.5 90.5t-33 132q0 76 32.5 134t90 89.5t131.5 31.5q56 0 99 -16t81 -51v52h146v-449
q0 -125 -74 -193t-228 -68q-48 0 -96.5 9zM409.5 127.5q37.5 25.5 51.5 67.5v90q-16 42 -52.5 67t-83.5 25q-61 0 -99.5 -37t-38.5 -99q0 -63 38.5 -101t99.5 -38q47 0 84.5 25.5z" />
    <glyph glyph-name="Gbreve" unicode="&#x11e;" horiz-adv-x="704" 
d="M289.5 786q-45.5 44 -45.5 118h113q0 -31 15 -47.5t44 -16.5q28 0 43.5 16.5t15.5 47.5h113q0 -74 -45.5 -118t-126.5 -44t-126.5 44zM212 29.5q-86 44.5 -133 126.5t-47 193t47 193.5t133 127t198 44.5q76 0 134.5 -15.5t107.5 -48.5v-145q-44 36 -100.5 52.5
t-128.5 16.5q-67 0 -120.5 -27.5t-84.5 -78.5t-31 -119q0 -69 28.5 -120.5t80.5 -79.5t120 -28q62 0 108 22v135h-113v112h260v-337q-99 -68 -261 -68q-112 0 -198 44.5z" />
    <glyph glyph-name="gbreve" unicode="&#x11f;" horiz-adv-x="665" 
d="M220.5 579q-45.5 44 -45.5 118h113q0 -31 15 -47.5t44 -16.5q28 0 43.5 16.5t15.5 47.5h113q0 -74 -45.5 -118t-126.5 -44t-126.5 44zM213.5 -221q-48.5 9 -81.5 24v111q77 -34 178 -34q81 0 116 33t35 99v30q-31 -28 -76 -42.5t-96 -14.5q-74 0 -132.5 32.5t-91.5 90.5
t-33 132q0 76 32.5 134t90 89.5t131.5 31.5q56 0 99 -16t81 -51v52h146v-449q0 -125 -74 -193t-228 -68q-48 0 -96.5 9zM409.5 127.5q37.5 25.5 51.5 67.5v90q-16 42 -52.5 67t-83.5 25q-61 0 -99.5 -37t-38.5 -99q0 -63 38.5 -101t99.5 -38q47 0 84.5 25.5z" />
    <glyph glyph-name="Gdotaccent" unicode="&#x120;" horiz-adv-x="704" 
d="M357.5 772.5q-21.5 20.5 -21.5 50.5t21.5 51t51.5 21q29 0 50 -21t21 -51t-21 -50.5t-50 -20.5q-30 0 -51.5 20.5zM212 29.5q-86 44.5 -133 126.5t-47 193t47 193.5t133 127t198 44.5q76 0 134.5 -15.5t107.5 -48.5v-145q-44 36 -100.5 52.5t-128.5 16.5
q-67 0 -120.5 -27.5t-84.5 -78.5t-31 -119q0 -69 28.5 -120.5t80.5 -79.5t120 -28q62 0 108 22v135h-113v112h260v-337q-99 -68 -261 -68q-112 0 -198 44.5z" />
    <glyph glyph-name="gdotaccent" unicode="&#x121;" horiz-adv-x="665" 
d="M307.5 565.5q-21.5 20.5 -21.5 50.5t21.5 51t51.5 21q29 0 50 -21t21 -51t-21 -50.5t-50 -20.5q-30 0 -51.5 20.5zM213.5 -221q-48.5 9 -81.5 24v111q77 -34 178 -34q81 0 116 33t35 99v30q-31 -28 -76 -42.5t-96 -14.5q-74 0 -132.5 32.5t-91.5 90.5t-33 132
q0 76 32.5 134t90 89.5t131.5 31.5q56 0 99 -16t81 -51v52h146v-449q0 -125 -74 -193t-228 -68q-48 0 -96.5 9zM409.5 127.5q37.5 25.5 51.5 67.5v90q-16 42 -52.5 67t-83.5 25q-61 0 -99.5 -37t-38.5 -99q0 -63 38.5 -101t99.5 -38q47 0 84.5 25.5z" />
    <glyph glyph-name="Gcommaaccent" unicode="&#x122;" horiz-adv-x="704" 
d="M212 29.5q-86 44.5 -133 126.5t-47 193t47 193.5t133 127t198 44.5q76 0 134.5 -15.5t107.5 -48.5v-145q-44 36 -100.5 52.5t-128.5 16.5q-67 0 -120.5 -27.5t-84.5 -78.5t-31 -119q0 -69 28.5 -120.5t80.5 -79.5t120 -28q62 0 108 22v135h-113v112h260v-337
q-99 -68 -261 -68q-112 0 -198 44.5zM350 -53h156l-101 -207h-138z" />
    <glyph glyph-name="gcommaaccent" unicode="&#x123;" horiz-adv-x="665" 
d="M379 742h138l-83 -207h-156zM213.5 -221q-48.5 9 -81.5 24v111q77 -34 178 -34q81 0 116 33t35 99v30q-31 -28 -76 -42.5t-96 -14.5q-74 0 -132.5 32.5t-91.5 90.5t-33 132q0 76 32.5 134t90 89.5t131.5 31.5q56 0 99 -16t81 -51v52h146v-449q0 -125 -74 -193t-228 -68
q-48 0 -96.5 9zM409.5 127.5q37.5 25.5 51.5 67.5v90q-16 42 -52.5 67t-83.5 25q-61 0 -99.5 -37t-38.5 -99q0 -63 38.5 -101t99.5 -38q47 0 84.5 25.5z" />
    <glyph glyph-name="Hcircumflex" unicode="&#x124;" horiz-adv-x="713" 
d="M289 918h135l151 -176h-150l-68 92l-68 -92h-151zM52 699h152v-280h305v280h152v-699h-152v293h-305v-293h-152v699z" />
    <glyph glyph-name="hcircumflex" unicode="&#x125;" horiz-adv-x="615" 
d="M212 939h135l151 -176h-150l-68 92l-68 -92h-151zM52 739h151v-314q34 35 77 52.5t92 17.5q98 0 146.5 -52.5t48.5 -141.5v-301h-151v284q0 93 -86 93q-38 0 -71 -18.5t-56 -54.5v-304h-151v739z" />
    <glyph glyph-name="Hbar" unicode="&#x126;" horiz-adv-x="756" 
d="M71 499h-44v120h44v80h156v-80h297v80h156v-80h49v-120h-49v-499h-156v287h-297v-287h-156v499zM524 425v74h-297v-74h297z" />
    <glyph glyph-name="hbar" unicode="&#x127;" horiz-adv-x="618" 
d="M56 539h-44v108h44v92h151v-92h138v-108h-138v-116q34 36 77.5 54t91.5 18q100 0 147.5 -50.5t47.5 -139.5v-305h-151v284q0 93 -89 93q-79 0 -124 -73v-304h-151v539z" />
    <glyph glyph-name="Itilde" unicode="&#x128;" horiz-adv-x="260" 
d="M-69 857q33 43 103 43q22 0 43.5 -6t55.5 -19q29 -12 50.5 -18.5t43.5 -6.5q63 0 102 50v-115q-33 -42 -102 -42q-25 0 -48.5 6.5t-54.5 19.5q-31 12 -50 18t-40 6q-61 0 -103 -51v115zM53 699h152v-699h-152v699z" />
    <glyph glyph-name="itilde" unicode="&#x129;" horiz-adv-x="257" 
d="M-70 650q33 43 103 43q22 0 43.5 -6t55.5 -19q29 -12 50.5 -18.5t43.5 -6.5q63 0 102 50v-115q-33 -42 -102 -42q-25 0 -48.5 6.5t-54.5 19.5q-31 12 -50 18t-40 6q-61 0 -103 -51v115zM52 480h152v-480h-152v480z" />
    <glyph glyph-name="Imacron" unicode="&#x12a;" horiz-adv-x="260" 
d="M-44 850h346v-98h-346v98zM53 699h152v-699h-152v699z" />
    <glyph glyph-name="imacron" unicode="&#x12b;" horiz-adv-x="257" 
d="M-45 643h346v-98h-346v98zM52 480h152v-480h-152v480z" />
    <glyph glyph-name="Ibreve" unicode="&#x12c;" horiz-adv-x="260" 
d="M2.5 786q-45.5 44 -45.5 118h113q0 -31 15 -47.5t44 -16.5q28 0 43.5 16.5t15.5 47.5h113q0 -74 -45.5 -118t-126.5 -44t-126.5 44zM53 699h152v-699h-152v699z" />
    <glyph glyph-name="ibreve" unicode="&#x12d;" horiz-adv-x="257" 
d="M1.5 579q-45.5 44 -45.5 118h113q0 -31 15 -47.5t44 -16.5q28 0 43.5 16.5t15.5 47.5h113q0 -74 -45.5 -118t-126.5 -44t-126.5 44zM52 480h152v-480h-152v480z" />
    <glyph glyph-name="Iogonek" unicode="&#x12e;" horiz-adv-x="260" 
d="M207 -117v-84q-40 -14 -95 -14q-54 0 -87.5 24t-33.5 71q0 38 19.5 68.5t52.5 51.5h-10v699h152v-699h-4q-40 -23 -59.5 -45t-19.5 -47q0 -17 10 -26.5t27 -9.5q26 0 48 11z" />
    <glyph glyph-name="iogonek" unicode="&#x12f;" horiz-adv-x="270" 
d="M76 577q-24 23 -24 58q0 34 24 57.5t59 23.5t59 -23.5t24 -57.5q0 -35 -24 -58t-59 -23t-59 23zM138 -118.5q10 -9.5 27 -9.5q26 0 48 11v-84q-40 -14 -95 -14q-54 0 -87.5 24t-33.5 71q0 38 19.5 68.5t52.5 51.5h-10v480h152v-480h-4q-40 -23 -59.5 -45t-19.5 -47
q0 -17 10 -26.5z" />
    <glyph glyph-name="Idotaccent" unicode="&#x130;" horiz-adv-x="260" 
d="M78.5 772.5q-21.5 20.5 -21.5 50.5t21.5 51t51.5 21q29 0 50 -21t21 -51t-21 -50.5t-50 -20.5q-30 0 -51.5 20.5zM53 699h152v-699h-152v699z" />
    <glyph glyph-name="dotlessi" unicode="&#x131;" horiz-adv-x="257" 
d="M52 480h152v-480h-152v480z" />
    <glyph glyph-name="IJ" unicode="&#x132;" horiz-adv-x="646" 
d="M53 699h152v-699h-152v699zM324.5 -9q-34.5 6 -52.5 15v131q15 -7 38 -11t46 -4q45 0 67 21t22 66v490h152v-504q0 -97 -54 -153.5t-153 -56.5q-31 0 -65.5 6z" />
    <glyph glyph-name="ij" unicode="&#x133;" horiz-adv-x="501" 
d="M76 577q-24 23 -24 58q0 34 24 57.5t59 23.5t59 -23.5t24 -57.5q0 -35 -24 -58t-59 -23t-59 23zM307 577q-24 23 -24 58q0 34 24 57.5t59 23.5q34 0 58 -23.5t24 -57.5q0 -35 -24 -58t-58 -23q-35 0 -59 23zM59 480h152v-480h-152v480zM149 -216v121q26 -13 65 -13
q38 0 57 19t19 60v509h151v-526q0 -92 -55 -138.5t-147 -46.5q-55 0 -90 15z" />
    <glyph glyph-name="Jcircumflex" unicode="&#x134;" horiz-adv-x="386" 
d="M192 918h135l151 -176h-150l-68 92l-68 -92h-151zM64.5 -9q-34.5 6 -52.5 15v131q15 -7 38 -11t46 -4q45 0 67 21t22 66v490h152v-504q0 -97 -54 -153.5t-153 -56.5q-31 0 -65.5 6z" />
    <glyph glyph-name="jcircumflex" unicode="&#x135;" horiz-adv-x="260" 
d="M56 711h135l151 -176h-150l-68 92l-68 -92h-151zM-85 -216v121q26 -13 65 -13q38 0 57 19t19 60v509h151v-526q0 -92 -55 -138.5t-147 -46.5q-56 0 -90 15z" />
    <glyph glyph-name="Kcommaaccent" unicode="&#x136;" horiz-adv-x="701" 
d="M52 699h152v-304l264 304h181l-296 -341l316 -358h-181l-284 321v-321h-152v699zM262 -53h156l-101 -207h-138z" />
    <glyph glyph-name="kcommaaccent" unicode="&#x137;" horiz-adv-x="610" 
d="M52 739h151v-462l175 203h175l-203 -234l228 -246h-175l-200 216v-216h-151v739zM217 -53h156l-101 -207h-138z" />
    <glyph glyph-name="kgreenlandic" unicode="&#x138;" horiz-adv-x="610" 
d="M52 480h149v-214l180 214h172l-203 -240l228 -240h-172l-205 216v-216h-149v480z" />
    <glyph glyph-name="Lacute" unicode="&#x139;" horiz-adv-x="537" 
d="M130 918h159l-89 -176h-139zM52 699h152v-572h320v-127h-472v699z" />
    <glyph glyph-name="lacute" unicode="&#x13a;" horiz-adv-x="256" 
d="M128 941h159l-89 -176h-139zM52 739h151v-739h-151v739z" />
    <glyph glyph-name="Lcommaaccent" unicode="&#x13b;" horiz-adv-x="537" 
d="M52 699h152v-572h320v-127h-472v699zM225 -53h156l-101 -207h-138z" />
    <glyph glyph-name="lcommaaccent" unicode="&#x13c;" horiz-adv-x="268" 
d="M65 739h151v-739h-151v739zM64 -53h156l-101 -207h-138z" />
    <glyph glyph-name="Lcaron" unicode="&#x13d;" horiz-adv-x="533" 
d="M377 710h156l-101 -207h-138zM52 699h152v-572h320v-127h-472v699z" />
    <glyph glyph-name="lcaron" unicode="&#x13e;" horiz-adv-x="489" 
d="M324 756h156l-101 -207h-138zM52 739h151v-739h-151v739z" />
    <glyph glyph-name="Ldot" unicode="&#x13f;" horiz-adv-x="537" 
d="M52 699h152v-572h320v-127h-472v699zM335.5 339.5q-21.5 20.5 -21.5 50.5t21.5 51t51.5 21q29 0 50 -21t21 -51t-21 -50.5t-50 -20.5q-30 0 -51.5 20.5z" />
    <glyph glyph-name="ldot" unicode="&#x140;" horiz-adv-x="396" 
d="M52 739h151v-739h-151v739zM271.5 333.5q-21.5 20.5 -21.5 50.5t21.5 51t51.5 21q29 0 50 -21t21 -51t-21 -50.5t-50 -20.5q-30 0 -51.5 20.5z" />
    <glyph glyph-name="Lslash" unicode="&#x141;" horiz-adv-x="567" 
d="M83 269l-86 -38v145l86 38v285h156v-215l144 65v-145l-144 -65v-209h315v-130h-471v269z" />
    <glyph glyph-name="lslash" unicode="&#x142;" horiz-adv-x="256" 
d="M325 404l-122 -55v-349h-151v282l-113 -51v145l113 51v312h151v-245l122 55v-145z" />
    <glyph glyph-name="Nacute" unicode="&#x143;" horiz-adv-x="696" 
d="M340 918h159l-89 -176h-139zM52 699h148l292 -452v452h152v-699h-147l-293 452v-452h-152v699z" />
    <glyph glyph-name="nacute" unicode="&#x144;" horiz-adv-x="615" 
d="M284 711h159l-89 -176h-139zM52 480h146v-59q33 37 78.5 55.5t95.5 18.5q98 0 146.5 -52.5t48.5 -141.5v-301h-151v284q0 93 -86 93q-38 0 -71 -18.5t-56 -54.5v-304h-151v480z" />
    <glyph glyph-name="Ncommaaccent" unicode="&#x145;" horiz-adv-x="696" 
d="M52 699h148l292 -452v452h152v-699h-147l-293 452v-452h-152v699zM280 -53h156l-101 -207h-138z" />
    <glyph glyph-name="ncommaaccent" unicode="&#x146;" horiz-adv-x="615" 
d="M52 480h146v-59q33 37 78.5 55.5t95.5 18.5q98 0 146.5 -52.5t48.5 -141.5v-301h-151v284q0 93 -86 93q-38 0 -71 -18.5t-56 -54.5v-304h-151v480zM244 -53h156l-101 -207h-138z" />
    <glyph glyph-name="Ncaron" unicode="&#x147;" horiz-adv-x="696" 
d="M131 918h151l68 -92l68 92h150l-151 -176h-135zM52 699h148l292 -452v452h152v-699h-147l-293 452v-452h-152v699z" />
    <glyph glyph-name="ncaron" unicode="&#x148;" horiz-adv-x="615" 
d="M95 711h151l68 -92l68 92h150l-151 -176h-135zM52 480h146v-59q33 37 78.5 55.5t95.5 18.5q98 0 146.5 -52.5t48.5 -141.5v-301h-151v284q0 93 -86 93q-38 0 -71 -18.5t-56 -54.5v-304h-151v480z" />
    <glyph glyph-name="napostrophe" unicode="&#x149;" horiz-adv-x="726" 
d="M69 710h156l-101 -207h-138zM163 480h146v-59q33 37 78.5 55.5t95.5 18.5q98 0 146.5 -52.5t48.5 -141.5v-301h-151v284q0 93 -86 93q-38 0 -71 -18.5t-56 -54.5v-304h-151v480z" />
    <glyph glyph-name="Eng" unicode="&#x14a;" horiz-adv-x="702" 
d="M358 -216v121q29 -13 65 -13q38 0 57 19t19 60v29h-2l-293 452v-452h-152v699h148l292 -452v452h152v-335h6v-410q0 -92 -55.5 -138.5t-146.5 -46.5q-52 0 -90 15z" />
    <glyph glyph-name="eng" unicode="&#x14b;" horiz-adv-x="614" 
d="M275 -216v122q28 -14 65 -14q38 0 57 19t19 60v313q0 93 -86 93q-38 0 -71 -18.5t-56 -54.5v-304h-151v480h146v-59q33 37 78.5 55.5t95.5 18.5q98 0 146.5 -52.5t48.5 -141.5v-346q0 -92 -55.5 -139t-146.5 -47q-52 0 -90 15z" />
    <glyph glyph-name="Omacron" unicode="&#x14c;" horiz-adv-x="810" 
d="M238 850h334v-98h-334v98zM215.5 31q-85.5 46 -134.5 128.5t-49 189.5t49 190t134.5 129t190.5 46t189.5 -46t133.5 -129t49 -190t-49 -189.5t-133.5 -128.5t-189.5 -46t-190.5 46zM515.5 152.5q49.5 27.5 78.5 78t29 118.5q0 67 -28.5 117.5t-78 78t-110.5 27.5
q-62 0 -111.5 -27.5t-78.5 -78t-29 -117.5q0 -68 29 -118.5t79 -78t111 -27.5q60 0 109.5 27.5z" />
    <glyph glyph-name="omacron" unicode="&#x14d;" horiz-adv-x="642" 
d="M154 643h334v-98h-334v98zM168.5 16.5q-65.5 31.5 -101 89t-35.5 134.5q0 75 35.5 133t101 90t152.5 32q86 0 151.5 -32t101 -90t35.5 -133q0 -77 -35.5 -134.5t-100.5 -89t-152 -31.5t-152.5 31.5zM418 140.5q36 37.5 36 99.5q0 64 -35.5 100.5t-97.5 36.5t-98 -36.5
t-36 -100.5q0 -62 36.5 -99.5t97.5 -37.5t97 37.5z" />
    <glyph glyph-name="Obreve" unicode="&#x14e;" horiz-adv-x="810" 
d="M278.5 786q-45.5 44 -45.5 118h113q0 -31 15 -47.5t44 -16.5q28 0 43.5 16.5t15.5 47.5h113q0 -74 -45.5 -118t-126.5 -44t-126.5 44zM215.5 31q-85.5 46 -134.5 128.5t-49 189.5t49 190t134.5 129t190.5 46t189.5 -46t133.5 -129t49 -190t-49 -189.5t-133.5 -128.5
t-189.5 -46t-190.5 46zM515.5 152.5q49.5 27.5 78.5 78t29 118.5q0 67 -28.5 117.5t-78 78t-110.5 27.5q-62 0 -111.5 -27.5t-78.5 -78t-29 -117.5q0 -68 29 -118.5t79 -78t111 -27.5q60 0 109.5 27.5z" />
    <glyph glyph-name="obreve" unicode="&#x14f;" horiz-adv-x="642" 
d="M194.5 579q-45.5 44 -45.5 118h113q0 -31 15 -47.5t44 -16.5q28 0 43.5 16.5t15.5 47.5h113q0 -74 -45.5 -118t-126.5 -44t-126.5 44zM168.5 16.5q-65.5 31.5 -101 89t-35.5 134.5q0 75 35.5 133t101 90t152.5 32q86 0 151.5 -32t101 -90t35.5 -133q0 -77 -35.5 -134.5
t-100.5 -89t-152 -31.5t-152.5 31.5zM418 140.5q36 37.5 36 99.5q0 64 -35.5 100.5t-97.5 36.5t-98 -36.5t-36 -100.5q0 -62 36.5 -99.5t97.5 -37.5t97 37.5z" />
    <glyph glyph-name="Ohungarumlaut" unicode="&#x150;" horiz-adv-x="810" 
d="M281 918h147l-89 -176h-127zM519 918h146l-88 -176h-127zM215.5 31q-85.5 46 -134.5 128.5t-49 189.5t49 190t134.5 129t190.5 46t189.5 -46t133.5 -129t49 -190t-49 -189.5t-133.5 -128.5t-189.5 -46t-190.5 46zM515.5 152.5q49.5 27.5 78.5 78t29 118.5
q0 67 -28.5 117.5t-78 78t-110.5 27.5q-62 0 -111.5 -27.5t-78.5 -78t-29 -117.5q0 -68 29 -118.5t79 -78t111 -27.5q60 0 109.5 27.5z" />
    <glyph glyph-name="ohungarumlaut" unicode="&#x151;" horiz-adv-x="651" 
d="M209 711h147l-89 -176h-127zM447 711h146l-88 -176h-127zM177.5 16.5q-65.5 31.5 -101 89t-35.5 134.5q0 75 35.5 133t101 90t152.5 32q86 0 151.5 -32t101 -90t35.5 -133q0 -77 -35.5 -134.5t-100.5 -89t-152 -31.5t-152.5 31.5zM427 140.5q36 37.5 36 99.5
q0 64 -35.5 100.5t-97.5 36.5t-98 -36.5t-36 -100.5q0 -62 36.5 -99.5t97.5 -37.5t97 37.5z" />
    <glyph glyph-name="OE" unicode="&#x152;" horiz-adv-x="891" 
d="M221.5 42q-88.5 42 -139 121t-50.5 186t50.5 186.5t139 121.5t201.5 42h436v-127h-291v-162h203v-122h-203v-161h291v-127h-436q-113 0 -201.5 42zM416 572q-104 0 -166.5 -59t-62.5 -164t62.5 -163.5t166.5 -58.5v445z" />
    <glyph glyph-name="oe" unicode="&#x153;" horiz-adv-x="1043" 
d="M1010 186h-396q16 -92 172 -92q46 0 95 8t85 22v-106q-35 -15 -90 -24t-110 -9q-74 0 -132 19.5t-96 56.5q-38 -37 -93.5 -56.5t-123.5 -19.5q-87 0 -152.5 31.5t-101 89t-35.5 134.5q0 75 35.5 133t101 90t152.5 32q67 0 121.5 -19.5t92.5 -55.5q72 75 207 75
q86 0 146 -32t91 -88.5t31 -127.5v-61zM867 284q-3 48 -36 74.5t-91 26.5q-57 0 -90 -27t-36 -74h253zM418 140.5q36 37.5 36 99.5q0 64 -35.5 100.5t-97.5 36.5t-98 -36.5t-36 -100.5q0 -62 36.5 -99.5t97.5 -37.5t97 37.5z" />
    <glyph glyph-name="Racute" unicode="&#x154;" horiz-adv-x="640" 
d="M278 918h159l-89 -176h-139zM52 699h303q119 0 185.5 -59.5t66.5 -171.5q0 -78 -36 -132.5t-102 -79.5l133 -256h-156l-123 237h-119v-237h-152v699zM328 364q58 0 91.5 25t33.5 79q0 57 -33 80.5t-92 23.5h-124v-208h124z" />
    <glyph glyph-name="racute" unicode="&#x155;" horiz-adv-x="409" 
d="M132 711h159l-89 -176h-139zM52 480h146v-69q29 35 81 53.5t118 18.5v-115q-69 0 -121.5 -21t-72.5 -64v-283h-151v480z" />
    <glyph glyph-name="Rcommaaccent" unicode="&#x156;" horiz-adv-x="640" 
d="M52 699h303q119 0 185.5 -59.5t66.5 -171.5q0 -78 -36 -132.5t-102 -79.5l133 -256h-156l-123 237h-119v-237h-152v699zM328 364q58 0 91.5 25t33.5 79q0 57 -33 80.5t-92 23.5h-124v-208h124zM238 -53h156l-101 -207h-138z" />
    <glyph glyph-name="rcommaaccent" unicode="&#x157;" horiz-adv-x="403" 
d="M46 480h146v-69q29 35 81 53.5t118 18.5v-115q-69 0 -121.5 -21t-72.5 -64v-283h-151v480zM43 -53h156l-101 -207h-138z" />
    <glyph glyph-name="Rcaron" unicode="&#x158;" horiz-adv-x="640" 
d="M75 918h151l68 -92l68 92h150l-151 -176h-135zM52 699h303q119 0 185.5 -59.5t66.5 -171.5q0 -78 -36 -132.5t-102 -79.5l133 -256h-156l-123 237h-119v-237h-152v699zM328 364q58 0 91.5 25t33.5 79q0 57 -33 80.5t-92 23.5h-124v-208h124z" />
    <glyph glyph-name="rcaron" unicode="&#x159;" horiz-adv-x="441" 
d="M-34 711h151l68 -92l68 92h150l-151 -176h-135zM85 480h146v-69q29 35 81 53.5t118 18.5v-115q-69 0 -121.5 -21t-72.5 -64v-283h-151v480z" />
    <glyph glyph-name="Sacute" unicode="&#x15a;" horiz-adv-x="568" 
d="M281 918h159l-89 -176h-139zM135 -3q-63 12 -103 32v134q53 -26 110 -39t109 -13q58 0 88 20t30 56q0 26 -15 44t-43.5 32.5t-87.5 38.5q-98 40 -142 89.5t-44 122.5q0 59 32 104.5t90 70.5t134 25q62 0 110 -10t94 -31v-130q-88 44 -176 44q-56 0 -88 -19.5t-32 -55.5
q0 -26 15 -43t42 -30t88 -38q71 -30 111 -57.5t59 -65t19 -92.5q0 -95 -68.5 -148t-204.5 -53q-64 0 -127 12z" />
    <glyph glyph-name="sacute" unicode="&#x15b;" horiz-adv-x="504" 
d="M228 711h159l-89 -176h-139zM133.5 -3.5q-61.5 11.5 -96.5 32.5v118q40 -24 96 -39t104 -15q41 0 60 7t19 26q0 15 -11 24.5t-33.5 17t-74.5 22.5q-61 18 -95.5 36.5t-52 46.5t-17.5 72q0 75 59.5 112.5t161.5 37.5q50 0 103.5 -10.5t82.5 -27.5v-115q-29 19 -75.5 31
t-90.5 12q-41 0 -63.5 -8t-22.5 -30q0 -19 21.5 -29t80.5 -25l20 -5q63 -17 98 -37.5t49.5 -49t14.5 -71.5q0 -66 -57 -105.5t-165 -39.5q-54 0 -115.5 11.5z" />
    <glyph glyph-name="Scircumflex" unicode="&#x15c;" horiz-adv-x="568" 
d="M216 918h135l151 -176h-150l-68 92l-68 -92h-151zM135 -3q-63 12 -103 32v134q53 -26 110 -39t109 -13q58 0 88 20t30 56q0 26 -15 44t-43.5 32.5t-87.5 38.5q-98 40 -142 89.5t-44 122.5q0 59 32 104.5t90 70.5t134 25q62 0 110 -10t94 -31v-130q-88 44 -176 44
q-56 0 -88 -19.5t-32 -55.5q0 -26 15 -43t42 -30t88 -38q71 -30 111 -57.5t59 -65t19 -92.5q0 -95 -68.5 -148t-204.5 -53q-64 0 -127 12z" />
    <glyph glyph-name="scircumflex" unicode="&#x15d;" horiz-adv-x="492" 
d="M173 711h135l151 -176h-150l-68 92l-68 -92h-151zM118.5 -3.5q-61.5 11.5 -96.5 32.5v118q40 -24 96 -39t104 -15q41 0 60 7t19 26q0 15 -11 24.5t-33.5 17t-74.5 22.5q-61 18 -95.5 36.5t-52 46.5t-17.5 72q0 75 59.5 112.5t161.5 37.5q50 0 103.5 -10.5t82.5 -27.5
v-115q-29 19 -75.5 31t-90.5 12q-41 0 -63.5 -8t-22.5 -30q0 -19 21.5 -29t80.5 -25l20 -5q63 -17 98 -37.5t49.5 -49t14.5 -71.5q0 -66 -57 -105.5t-165 -39.5q-54 0 -115.5 11.5z" />
    <glyph glyph-name="Scedilla" unicode="&#x15e;" horiz-adv-x="568" 
d="M485 54q-50 -51 -150 -64l-15 -39q43 -6 66 -30.5t23 -66.5q0 -50 -40.5 -76t-111.5 -26q-31 0 -59 3.5t-43 9.5l1 77q10 -6 26.5 -9.5t32.5 -3.5q55 0 55 37q0 47 -99 47l29 75q-48 5 -93 15.5t-75 25.5v134q53 -26 110 -39t109 -13q58 0 88 20t30 56q0 26 -15 44
t-43.5 32.5t-87.5 38.5q-98 40 -142 89.5t-44 122.5q0 59 32 104.5t90 70.5t134 25q62 0 110 -10t94 -31v-130q-88 44 -176 44q-56 0 -88 -19.5t-32 -55.5q0 -26 15 -43t42 -30t88 -38q71 -30 111 -57.5t59 -65t19 -92.5q0 -81 -50 -132z" />
    <glyph glyph-name="scedilla" unicode="&#x15f;" horiz-adv-x="504" 
d="M429.5 35.5q-41.5 -37.5 -121.5 -47.5l-15 -37q43 -6 66 -30.5t23 -66.5q0 -50 -40.5 -76t-111.5 -26q-31 0 -59 3.5t-43 9.5l1 77q10 -6 26.5 -9.5t32.5 -3.5q55 0 55 37q0 47 -99 47l30 77q-91 12 -137 39v118q40 -24 96 -39t104 -15q41 0 60 7t19 26q0 15 -11 24.5
t-33.5 17t-74.5 22.5q-61 18 -95.5 36.5t-52 46.5t-17.5 72q0 75 59.5 112.5t161.5 37.5q50 0 103.5 -10.5t82.5 -27.5v-115q-29 19 -75.5 31t-90.5 12q-41 0 -63.5 -8t-22.5 -30q0 -19 21.5 -29t80.5 -25l20 -5q63 -17 98 -37.5t49.5 -49t14.5 -71.5q0 -57 -41.5 -94.5z
" />
    <glyph glyph-name="Scaron" unicode="&#x160;" horiz-adv-x="568" 
d="M74 918h151l68 -92l68 92h150l-151 -176h-135zM135 -3q-63 12 -103 32v134q53 -26 110 -39t109 -13q58 0 88 20t30 56q0 26 -15 44t-43.5 32.5t-87.5 38.5q-98 40 -142 89.5t-44 122.5q0 59 32 104.5t90 70.5t134 25q62 0 110 -10t94 -31v-130q-88 44 -176 44
q-56 0 -88 -19.5t-32 -55.5q0 -26 15 -43t42 -30t88 -38q71 -30 111 -57.5t59 -65t19 -92.5q0 -95 -68.5 -148t-204.5 -53q-64 0 -127 12z" />
    <glyph glyph-name="scaron" unicode="&#x161;" horiz-adv-x="494" 
d="M26 711h151l68 -92l68 92h150l-151 -176h-135zM123.5 -3.5q-61.5 11.5 -96.5 32.5v118q40 -24 96 -39t104 -15q41 0 60 7t19 26q0 15 -11 24.5t-33.5 17t-74.5 22.5q-61 18 -95.5 36.5t-52 46.5t-17.5 72q0 75 59.5 112.5t161.5 37.5q50 0 103.5 -10.5t82.5 -27.5v-115
q-29 19 -75.5 31t-90.5 12q-41 0 -63.5 -8t-22.5 -30q0 -19 21.5 -29t80.5 -25l20 -5q63 -17 98 -37.5t49.5 -49t14.5 -71.5q0 -66 -57 -105.5t-165 -39.5q-54 0 -115.5 11.5z" />
    <glyph glyph-name="uni0162" unicode="&#x162;" horiz-adv-x="590" 
d="M368 0l-19 -49q43 -6 66 -30.5t23 -66.5q0 -50 -40.5 -76t-111.5 -26q-31 0 -59 3.5t-43 9.5l1 77q10 -6 26.5 -9.5t32.5 -3.5q55 0 55 37q0 47 -99 47l34 87h-15v572h-204v127h560v-127h-204v-572h-3z" />
    <glyph glyph-name="uni0163" unicode="&#x163;" horiz-adv-x="401" 
d="M360 -79.5q23 -24.5 23 -66.5q0 -50 -40.5 -76t-111.5 -26q-31 0 -59 3.5t-43 9.5l1 77q10 -6 26.5 -9.5t32.5 -3.5q55 0 55 37q0 47 -99 47l33 84q-48 18 -72 60t-24 104v210h-70v109h70v144h151v-144h113v-109h-113v-190q0 -42 16 -60.5t57 -18.5q33 0 63 16v-113
q-25 -11 -61 -17l-14 -37q43 -6 66 -30.5z" />
    <glyph glyph-name="Tcaron" unicode="&#x164;" horiz-adv-x="590" 
d="M77 918h151l68 -92l68 92h150l-151 -176h-135zM219 572h-204v127h560v-127h-204v-572h-152v572z" />
    <glyph glyph-name="tcaron" unicode="&#x165;" horiz-adv-x="515" 
d="M369 791h156l-101 -207h-138zM125.5 31.5q-43.5 46.5 -43.5 129.5v210h-70v109h70v144h151v-144h113v-109h-113v-190q0 -42 16 -60.5t57 -18.5q33 0 63 16v-113q-46 -20 -116 -20q-84 0 -127.5 46.5z" />
    <glyph glyph-name="Tbar" unicode="&#x166;" horiz-adv-x="590" 
d="M215 266h-111v127h111v172h-200v134h560v-134h-201v-172h114v-127h-114v-266h-159v266z" />
    <glyph glyph-name="tbar" unicode="&#x167;" horiz-adv-x="388" 
d="M127 31.5q-44 46.5 -44 129.5v54h-71v83h71v80h-70v102h70v144h151v-144h113v-102h-113v-80h112v-83h-112v-34q0 -41 17 -60t56 -19q33 0 63 16v-113q-46 -20 -116 -20q-83 0 -127 46.5z" />
    <glyph glyph-name="Utilde" unicode="&#x168;" horiz-adv-x="711" 
d="M158 857q33 43 103 43q22 0 43.5 -6t55.5 -19q29 -12 50.5 -18.5t43.5 -6.5q63 0 102 50v-115q-33 -42 -102 -42q-25 0 -48.5 6.5t-54.5 19.5q-31 12 -50 18t-40 6q-61 0 -103 -51v115zM125 65.5q-78 80.5 -78 216.5v417h152v-419q0 -76 42 -116t115 -40q72 0 113.5 40
t41.5 116v419h152v-417q0 -136 -77 -216.5t-230 -80.5t-231 80.5z" />
    <glyph glyph-name="utilde" unicode="&#x169;" horiz-adv-x="615" 
d="M117 650q33 43 103 43q22 0 43.5 -6t55.5 -19q29 -12 50.5 -18.5t43.5 -6.5q63 0 102 50v-115q-33 -42 -102 -42q-25 0 -48.5 6.5t-54.5 19.5q-31 12 -50 18t-40 6q-61 0 -103 -51v115zM96 38.5q-49 53.5 -49 142.5v299h151v-283q0 -94 87 -94q38 0 71 18t55 54v305h151
v-480h-146v58q-32 -37 -77.5 -55t-95.5 -18q-98 0 -147 53.5z" />
    <glyph glyph-name="Umacron" unicode="&#x16a;" horiz-adv-x="711" 
d="M188 850h334v-98h-334v98zM125 65.5q-78 80.5 -78 216.5v417h152v-419q0 -76 42 -116t115 -40q72 0 113.5 40t41.5 116v419h152v-417q0 -136 -77 -216.5t-230 -80.5t-231 80.5z" />
    <glyph glyph-name="umacron" unicode="&#x16b;" horiz-adv-x="615" 
d="M143 643h334v-98h-334v98zM96 38.5q-49 53.5 -49 142.5v299h151v-283q0 -94 87 -94q38 0 71 18t55 54v305h151v-480h-146v58q-32 -37 -77.5 -55t-95.5 -18q-98 0 -147 53.5z" />
    <glyph glyph-name="Ubreve" unicode="&#x16c;" horiz-adv-x="711" 
d="M228.5 786q-45.5 44 -45.5 118h113q0 -31 15 -47.5t44 -16.5q28 0 43.5 16.5t15.5 47.5h113q0 -74 -45.5 -118t-126.5 -44t-126.5 44zM125 65.5q-78 80.5 -78 216.5v417h152v-419q0 -76 42 -116t115 -40q72 0 113.5 40t41.5 116v419h152v-417q0 -136 -77 -216.5
t-230 -80.5t-231 80.5z" />
    <glyph glyph-name="ubreve" unicode="&#x16d;" horiz-adv-x="615" 
d="M182.5 579q-45.5 44 -45.5 118h113q0 -31 15 -47.5t44 -16.5q28 0 43.5 16.5t15.5 47.5h113q0 -74 -45.5 -118t-126.5 -44t-126.5 44zM96 38.5q-49 53.5 -49 142.5v299h151v-283q0 -94 87 -94q38 0 71 18t55 54v305h151v-480h-146v58q-32 -37 -77.5 -55t-95.5 -18
q-98 0 -147 53.5z" />
    <glyph glyph-name="Uring" unicode="&#x16e;" horiz-adv-x="711" 
d="M288.5 759.5q-30.5 17.5 -48.5 48t-18 66.5t18 66.5t48.5 48t66.5 17.5t66.5 -18t48.5 -48t18 -66t-18 -66.5t-48.5 -48t-66.5 -17.5t-66.5 17.5zM389 839.5q14 14.5 14 34.5t-14 34t-34 14t-34.5 -14t-14.5 -34t14.5 -34.5t34.5 -14.5t34 14.5zM125 65.5
q-78 80.5 -78 216.5v417h152v-419q0 -76 42 -116t115 -40q72 0 113.5 40t41.5 116v419h152v-417q0 -136 -77 -216.5t-230 -80.5t-231 80.5z" />
    <glyph glyph-name="uring" unicode="&#x16f;" horiz-adv-x="615" 
d="M238.5 552.5q-30.5 17.5 -48.5 48t-18 66.5t18 66.5t48.5 48t66.5 17.5t66.5 -18t48.5 -48t18 -66t-18 -66.5t-48.5 -48t-66.5 -17.5t-66.5 17.5zM339 632.5q14 14.5 14 34.5t-14 34t-34 14t-34.5 -14t-14.5 -34t14.5 -34.5t34.5 -14.5t34 14.5zM96 38.5
q-49 53.5 -49 142.5v299h151v-283q0 -94 87 -94q38 0 71 18t55 54v305h151v-480h-146v58q-32 -37 -77.5 -55t-95.5 -18q-98 0 -147 53.5z" />
    <glyph glyph-name="Uhungarumlaut" unicode="&#x170;" horiz-adv-x="711" 
d="M241 918h147l-89 -176h-127zM479 918h146l-88 -176h-127zM125 65.5q-78 80.5 -78 216.5v417h152v-419q0 -76 42 -116t115 -40q72 0 113.5 40t41.5 116v419h152v-417q0 -136 -77 -216.5t-230 -80.5t-231 80.5z" />
    <glyph glyph-name="uhungarumlaut" unicode="&#x171;" horiz-adv-x="613" 
d="M187 711h147l-89 -176h-127zM425 711h146l-88 -176h-127zM96 38.5q-49 53.5 -49 142.5v299h151v-283q0 -94 87 -94q38 0 71 18t55 54v305h151v-480h-146v58q-32 -37 -77.5 -55t-95.5 -18q-98 0 -147 53.5z" />
    <glyph glyph-name="Uogonek" unicode="&#x172;" horiz-adv-x="711" 
d="M663 699v-417q0 -118 -59 -195.5t-175 -95.5q-32 -21 -47.5 -41t-15.5 -42q0 -17 10 -26.5t27 -9.5q26 0 48 11v-84q-40 -14 -95 -14q-54 0 -87.5 24t-33.5 71q0 65 56 109q-121 17 -182.5 95t-61.5 198v417h152v-419q0 -76 42 -116t115 -40q72 0 113.5 40t41.5 116v419
h152z" />
    <glyph glyph-name="uogonek" unicode="&#x173;" horiz-adv-x="620" 
d="M567 -117v-84q-40 -14 -95 -14q-54 0 -87.5 24t-33.5 71q0 38 19.5 68.5t52.5 51.5h-7v58q-32 -37 -77.5 -55t-95.5 -18q-98 0 -147 53.5t-49 142.5v299h151v-283q0 -94 87 -94q38 0 71 18t55 54v305h151v-480h-1q-40 -23 -59.5 -45t-19.5 -47q0 -17 10 -26.5t27 -9.5
q26 0 48 11z" />
    <glyph glyph-name="Wcircumflex" unicode="&#x174;" horiz-adv-x="999" 
d="M432 918h135l151 -176h-150l-68 92l-68 -92h-151zM35 699h160l125 -452l123 452h117l119 -452l125 452h159l-196 -699h-143l-125 443l-124 -443h-144z" />
    <glyph glyph-name="wcircumflex" unicode="&#x175;" horiz-adv-x="841" 
d="M353 711h135l151 -176h-150l-68 92l-68 -92h-151zM32 480h151l88 -300l86 300h126l87 -300l87 300h151l-159 -480h-137l-92 298l-92 -298h-137z" />
    <glyph glyph-name="Ycircumflex" unicode="&#x176;" horiz-adv-x="738" 
d="M299 918h135l151 -176h-150l-68 92l-68 -92h-151zM291 266l-256 433h162l169 -291l175 291h161l-262 -433v-266h-149v266z" />
    <glyph glyph-name="ycircumflex" unicode="&#x177;" horiz-adv-x="620" 
d="M255 711h135l151 -176h-150l-68 92l-68 -92h-151zM129.5 -194q-31.5 4 -47.5 11v113q29 -11 64 -11q36 0 54.5 16t30.5 50l16 41l-208 454h152l136 -331l129 331h151l-204 -513q-34 -85 -84 -125t-128 -40q-30 0 -61.5 4z" />
    <glyph glyph-name="Ydieresis" unicode="&#x178;" horiz-adv-x="738" 
d="M197 772.5q-21 20.5 -21 50.5t21.5 51t50.5 21t50 -21t21 -51t-21 -50.5t-50 -20.5q-30 0 -51 20.5zM433.5 772.5q-21.5 20.5 -21.5 50.5t21.5 51t51.5 21q29 0 50 -21t21 -51t-21 -50.5t-50 -20.5q-30 0 -51.5 20.5zM291 266l-256 433h162l169 -291l175 291h161
l-262 -433v-266h-149v266z" />
    <glyph glyph-name="Zacute" unicode="&#x179;" horiz-adv-x="615" 
d="M288 918h159l-89 -176h-139zM32 101l342 471h-333v127h521v-102l-340 -470h360v-127h-550v101z" />
    <glyph glyph-name="zacute" unicode="&#x17a;" horiz-adv-x="509" 
d="M246 711h159l-89 -176h-139zM32 87l242 284h-235v109h430v-88l-240 -283h248v-109h-445v87z" />
    <glyph glyph-name="Zdotaccent" unicode="&#x17b;" horiz-adv-x="615" 
d="M251.5 772.5q-21.5 20.5 -21.5 50.5t21.5 51t51.5 21q29 0 50 -21t21 -51t-21 -50.5t-50 -20.5q-30 0 -51.5 20.5zM32 101l342 471h-333v127h521v-102l-340 -470h360v-127h-550v101z" />
    <glyph glyph-name="zdotaccent" unicode="&#x17c;" horiz-adv-x="509" 
d="M212.5 565.5q-21.5 20.5 -21.5 50.5t21.5 51t51.5 21q29 0 50 -21t21 -51t-21 -50.5t-50 -20.5q-30 0 -51.5 20.5zM32 87l242 284h-235v109h430v-88l-240 -283h248v-109h-445v87z" />
    <glyph glyph-name="Zcaron" unicode="&#x17d;" horiz-adv-x="615" 
d="M90 918h151l68 -92l68 92h150l-151 -176h-135zM32 101l342 471h-333v127h521v-102l-340 -470h360v-127h-550v101z" />
    <glyph glyph-name="zcaron" unicode="&#x17e;" horiz-adv-x="522" 
d="M56 711h151l68 -92l68 92h150l-151 -176h-135zM42 87l242 284h-235v109h430v-88l-240 -283h248v-109h-445v87z" />
    <glyph glyph-name="uni018F" unicode="&#x18f;" horiz-adv-x="823" 
d="M202 31q-85 46 -127.5 125.5t-42.5 180.5v68h583q-12 84 -82 132.5t-184 48.5q-66 0 -135 -12t-119 -32v124q51 21 126 34.5t153 13.5q130 0 224 -42.5t143.5 -124t49.5 -196.5q0 -111 -44 -193.5t-130 -127.5t-208 -45t-207 46zM557.5 159q52.5 49 58.5 132h-424
q6 -82 59 -131.5t154 -49.5q100 0 152.5 49z" />
    <glyph glyph-name="florin" unicode="&#x192;" horiz-adv-x="539" 
d="M-103 -215l24 122q25 -14 60 -14q44 0 68 19.5t33 61.5l84 402h-73l20 104h75l15 71q22 101 83 147t159 46q57 0 91 -16l-23 -121q-28 13 -62 13q-41 0 -65.5 -19t-33.5 -62l-13 -59h123l-20 -104h-124l-88 -414q-22 -101 -80 -146.5t-162 -45.5q-58 0 -91 15z" />
    <glyph glyph-name="Ohorn" unicode="&#x1a0;" horiz-adv-x="884" 
d="M215.5 31q-85.5 46 -134.5 128.5t-49 189.5t49 190t134.5 129t190.5 46q72 0 136 -22.5t114 -64.5q50 1 69 20t19 65v35h132v-44q0 -68 -36 -117.5t-101 -64.5q39 -78 39 -172q0 -107 -49 -189.5t-133.5 -128.5t-189.5 -46t-190.5 46zM512.5 157.5q48.5 26.5 76.5 76
t28 115.5q0 65 -28 114.5t-76 76t-107 26.5q-60 0 -108.5 -26.5t-76.5 -76t-28 -114.5q0 -66 28.5 -115.5t77 -76t107.5 -26.5q58 0 106.5 26.5z" />
    <glyph glyph-name="ohorn" unicode="&#x1a1;" horiz-adv-x="721" 
d="M168.5 16.5q-65.5 31.5 -101 89t-35.5 134.5q0 75 35.5 133t101 90t152.5 32q115 0 193 -57q42 4 60 25t18 60v35h122v-44q0 -62 -33 -108t-92 -63q20 -48 20 -103q0 -77 -35.5 -134.5t-100.5 -89t-152 -31.5t-152.5 31.5zM418 140.5q36 37.5 36 99.5q0 64 -35.5 100.5
t-97.5 36.5t-98 -36.5t-36 -100.5q0 -62 36.5 -99.5t97.5 -37.5t97 37.5z" />
    <glyph glyph-name="Uhorn" unicode="&#x1af;" horiz-adv-x="884" 
d="M125 65.5q-78 80.5 -78 216.5v417h159v-416q0 -77 39 -115t111 -38q71 0 109.5 38t38.5 115v416h160v-71q47 0 63.5 18.5t16.5 65.5v35h133v-44q0 -84 -52 -135t-161 -52v-234q0 -136 -77.5 -216.5t-230.5 -80.5t-231 80.5z" />
    <glyph glyph-name="uhorn" unicode="&#x1b0;" horiz-adv-x="769" 
d="M96 38.5q-49 53.5 -49 142.5v299h151v-283q0 -94 87 -94q38 0 71 18t55 54v305h151v-42q42 1 60 21.5t18 61.5v37h122v-44q0 -80 -50 -129.5t-150 -50.5v-334h-146v58q-32 -37 -77.5 -55t-95.5 -18q-98 0 -147 53.5z" />
    <glyph glyph-name="uni01CD" unicode="&#x1cd;" horiz-adv-x="772" 
d="M168 918h151l68 -92l68 92h150l-151 -176h-135zM312 699h149l279 -699h-155l-60 152h-277l-60 -152h-156zM485 273l-99 266l-99 -266h198z" />
    <glyph glyph-name="uni01CE" unicode="&#x1ce;" horiz-adv-x="592" 
d="M103 711h151l68 -92l68 92h150l-151 -176h-135zM87.5 29.5q-55.5 44.5 -55.5 121.5q0 80 53 124.5t150 44.5q43 0 82 -9t69 -25v12q0 45 -32 66t-98 21q-88 0 -162 -33v110q32 14 83 23.5t102 9.5q130 0 194 -53.5t64 -149.5v-292h-142v44q-61 -59 -164 -59
q-88 0 -143.5 44.5zM339 99q30 14 47 39v48q-51 34 -112 34q-42 0 -64.5 -17.5t-22.5 -51.5q0 -32 22 -49t63 -17q37 0 67 14z" />
    <glyph glyph-name="uni01CF" unicode="&#x1cf;" horiz-adv-x="257" 
d="M-90 918h151l68 -92l68 92h150l-151 -176h-135zM52 699h152v-699h-152v699z" />
    <glyph glyph-name="uni01D0" unicode="&#x1d0;" horiz-adv-x="250" 
d="M-94 711h151l68 -92l68 92h150l-151 -176h-135zM48 480h152v-480h-152v480z" />
    <glyph glyph-name="uni01D1" unicode="&#x1d1;" horiz-adv-x="810" 
d="M186 918h151l68 -92l68 92h150l-151 -176h-135zM215.5 31q-85.5 46 -134.5 128.5t-49 189.5t49 190t134.5 129t190.5 46t189.5 -46t133.5 -129t49 -190t-49 -189.5t-133.5 -128.5t-189.5 -46t-190.5 46zM515.5 152.5q49.5 27.5 78.5 78t29 118.5q0 67 -28.5 117.5t-78 78
t-110.5 27.5q-62 0 -111.5 -27.5t-78.5 -78t-29 -117.5q0 -68 29 -118.5t79 -78t111 -27.5q60 0 109.5 27.5z" />
    <glyph glyph-name="uni01D2" unicode="&#x1d2;" horiz-adv-x="660" 
d="M121 711h151l68 -92l68 92h150l-151 -176h-135zM186.5 16.5q-65.5 31.5 -101 89t-35.5 134.5q0 75 35.5 133t101 90t152.5 32q86 0 151.5 -32t101 -90t35.5 -133q0 -77 -35.5 -134.5t-100.5 -89t-152 -31.5t-152.5 31.5zM436 140.5q36 37.5 36 99.5q0 64 -35.5 100.5
t-97.5 36.5t-98 -36.5t-36 -100.5q0 -62 36.5 -99.5t97.5 -37.5t97 37.5z" />
    <glyph glyph-name="uni01D3" unicode="&#x1d3;" horiz-adv-x="711" 
d="M137 918h151l68 -92l68 92h150l-151 -176h-135zM125 65.5q-78 80.5 -78 216.5v417h152v-419q0 -76 42 -116t115 -40q72 0 113.5 40t41.5 116v419h152v-417q0 -136 -77 -216.5t-230 -80.5t-231 80.5z" />
    <glyph glyph-name="uni01D4" unicode="&#x1d4;" horiz-adv-x="615" 
d="M93 711h151l68 -92l68 92h150l-151 -176h-135zM96 38.5q-49 53.5 -49 142.5v299h151v-283q0 -94 87 -94q38 0 71 18t55 54v305h151v-480h-146v58q-32 -37 -77.5 -55t-95.5 -18q-98 0 -147 53.5z" />
    <glyph glyph-name="uni01D5" unicode="&#x1d5;" horiz-adv-x="711" 
d="M188 1032h334v-98h-334v98zM186 772.5q-21 20.5 -21 50.5t21.5 51t50.5 21t50 -21t21 -51t-21 -50.5t-50 -20.5q-30 0 -51 20.5zM422.5 772.5q-21.5 20.5 -21.5 50.5t21.5 51t51.5 21q29 0 50 -21t21 -51t-21 -50.5t-50 -20.5q-30 0 -51.5 20.5zM125 65.5
q-78 80.5 -78 216.5v417h152v-419q0 -76 42 -116t115 -40q72 0 113.5 40t41.5 116v419h152v-417q0 -136 -77 -216.5t-230 -80.5t-231 80.5z" />
    <glyph glyph-name="uni01D6" unicode="&#x1d6;" horiz-adv-x="615" 
d="M141 826h334v-98h-334v98zM139 565.5q-21 20.5 -21 50.5t21.5 51t50.5 21t50 -21t21 -51t-21 -50.5t-50 -20.5q-30 0 -51 20.5zM375.5 565.5q-21.5 20.5 -21.5 50.5t21.5 51t51.5 21q29 0 50 -21t21 -51t-21 -50.5t-50 -20.5q-30 0 -51.5 20.5zM96 38.5
q-49 53.5 -49 142.5v299h151v-283q0 -94 87 -94q38 0 71 18t55 54v305h151v-480h-146v58q-32 -37 -77.5 -55t-95.5 -18q-98 0 -147 53.5z" />
    <glyph glyph-name="uni01D7" unicode="&#x1d7;" horiz-adv-x="711" 
d="M350 1005h134l-71 -117h-110zM191 772.5q-21 20.5 -21 50.5t21.5 51t50.5 21t50 -21t21 -51t-21 -50.5t-50 -20.5q-30 0 -51 20.5zM427.5 772.5q-21.5 20.5 -21.5 50.5t21.5 51t51.5 21q29 0 50 -21t21 -51t-21 -50.5t-50 -20.5q-30 0 -51.5 20.5zM125 65.5
q-78 80.5 -78 216.5v417h152v-419q0 -76 42 -116t115 -40q72 0 113.5 40t41.5 116v419h152v-417q0 -136 -77 -216.5t-230 -80.5t-231 80.5z" />
    <glyph glyph-name="uni01D8" unicode="&#x1d8;" horiz-adv-x="615" 
d="M297 798h134l-71 -117h-110zM138 565.5q-21 20.5 -21 50.5t21.5 51t50.5 21t50 -21t21 -51t-21 -50.5t-50 -20.5q-30 0 -51 20.5zM374.5 565.5q-21.5 20.5 -21.5 50.5t21.5 51t51.5 21q29 0 50 -21t21 -51t-21 -50.5t-50 -20.5q-30 0 -51.5 20.5zM96 38.5
q-49 53.5 -49 142.5v299h151v-283q0 -94 87 -94q38 0 71 18t55 54v305h151v-480h-146v58q-32 -37 -77.5 -55t-95.5 -18q-98 0 -147 53.5z" />
    <glyph glyph-name="uni01D9" unicode="&#x1d9;" horiz-adv-x="711" 
d="M184 1014h133l40 -56l40 56h133l-115 -125h-115zM188 772.5q-21 20.5 -21 50.5t21 51t50 21q30 0 51.5 -21t21.5 -51t-21.5 -50.5t-51.5 -20.5q-29 0 -50 20.5zM425 772.5q-21 20.5 -21 50.5t21 51t50 21t50.5 -21t21.5 -51t-21 -50.5t-51 -20.5q-29 0 -50 20.5z
M125 65.5q-78 80.5 -78 216.5v417h152v-419q0 -76 42 -116t115 -40q72 0 113.5 40t41.5 116v419h152v-417q0 -136 -77 -216.5t-230 -80.5t-231 80.5z" />
    <glyph glyph-name="uni01DA" unicode="&#x1da;" horiz-adv-x="615" 
d="M131 807h133l40 -56l40 56h133l-115 -125h-115zM135 565.5q-21 20.5 -21 50.5t21 51t50 21q30 0 51.5 -21t21.5 -51t-21.5 -50.5t-51.5 -20.5q-29 0 -50 20.5zM372 565.5q-21 20.5 -21 50.5t21 51t50 21t50.5 -21t21.5 -51t-21 -50.5t-51 -20.5q-29 0 -50 20.5zM96 38.5
q-49 53.5 -49 142.5v299h151v-283q0 -94 87 -94q38 0 71 18t55 54v305h151v-480h-146v58q-32 -37 -77.5 -55t-95.5 -18q-98 0 -147 53.5z" />
    <glyph glyph-name="uni01DB" unicode="&#x1db;" horiz-adv-x="711" 
d="M237 1005h134l47 -117h-110zM192 772.5q-21 20.5 -21 50.5t21 51t50 21q30 0 51.5 -21t21.5 -51t-21.5 -50.5t-51.5 -20.5q-29 0 -50 20.5zM429 772.5q-21 20.5 -21 50.5t21 51t50 21t50.5 -21t21.5 -51t-21 -50.5t-51 -20.5q-29 0 -50 20.5zM125 65.5
q-78 80.5 -78 216.5v417h152v-419q0 -76 42 -116t115 -40q72 0 113.5 40t41.5 116v419h152v-417q0 -136 -77 -216.5t-230 -80.5t-231 80.5z" />
    <glyph glyph-name="uni01DC" unicode="&#x1dc;" horiz-adv-x="615" 
d="M187 798h134l47 -117h-110zM142 565.5q-21 20.5 -21 50.5t21 51t50 21q30 0 51.5 -21t21.5 -51t-21.5 -50.5t-51.5 -20.5q-29 0 -50 20.5zM379 565.5q-21 20.5 -21 50.5t21 51t50 21t50.5 -21t21.5 -51t-21 -50.5t-51 -20.5q-29 0 -50 20.5zM96 38.5q-49 53.5 -49 142.5
v299h151v-283q0 -94 87 -94q38 0 71 18t55 54v305h151v-480h-146v58q-32 -37 -77.5 -55t-95.5 -18q-98 0 -147 53.5z" />
    <glyph glyph-name="Gcaron" unicode="&#x1e6;" horiz-adv-x="704" 
d="M165 918h151l68 -92l68 92h150l-151 -176h-135zM212 29.5q-86 44.5 -133 126.5t-47 193t47 193.5t133 127t198 44.5q76 0 134.5 -15.5t107.5 -48.5v-145q-44 36 -100.5 52.5t-128.5 16.5q-67 0 -120.5 -27.5t-84.5 -78.5t-31 -119q0 -69 28.5 -120.5t80.5 -79.5t120 -28
q62 0 108 22v135h-113v112h260v-337q-99 -68 -261 -68q-112 0 -198 44.5z" />
    <glyph glyph-name="gcaron" unicode="&#x1e7;" horiz-adv-x="665" 
d="M120 711h151l68 -92l68 92h150l-151 -176h-135zM213.5 -221q-48.5 9 -81.5 24v111q77 -34 178 -34q81 0 116 33t35 99v30q-31 -28 -76 -42.5t-96 -14.5q-74 0 -132.5 32.5t-91.5 90.5t-33 132q0 76 32.5 134t90 89.5t131.5 31.5q56 0 99 -16t81 -51v52h146v-449
q0 -125 -74 -193t-228 -68q-48 0 -96.5 9zM409.5 127.5q37.5 25.5 51.5 67.5v90q-16 42 -52.5 67t-83.5 25q-61 0 -99.5 -37t-38.5 -99q0 -63 38.5 -101t99.5 -38q47 0 84.5 25.5z" />
    <glyph glyph-name="Aringacute" unicode="&#x1fa;" horiz-adv-x="772" 
d="M450 923h-139l69 141h159zM740 0h-155l-60 152h-277l-60 -152h-156l270 673q-23 18 -36 45t-13 58q0 36 18 66.5t48.5 48t66.5 17.5t66.5 -18t48.5 -48t18 -66q0 -30 -13 -57t-35 -45zM351.5 810q-14.5 -14 -14.5 -34t14.5 -34.5t34.5 -14.5t34 14.5t14 34.5t-14 34
t-34 14t-34.5 -14zM485 273l-99 266l-99 -266h198z" />
    <glyph glyph-name="aringacute" unicode="&#x1fb;" horiz-adv-x="585" 
d="M294 963h159l-89 -141h-139zM232.5 546.5q-30.5 17.5 -48.5 48t-18 66.5t18 66.5t48.5 48t66.5 17.5t66.5 -18t48.5 -48t18 -66t-18 -66.5t-48.5 -48t-66.5 -17.5t-66.5 17.5zM333 626.5q14 14.5 14 34.5t-14 34t-34 14t-34.5 -14t-14.5 -34t14.5 -34.5t34.5 -14.5
t34 14.5zM87.5 29.5q-55.5 44.5 -55.5 121.5q0 80 53 124.5t150 44.5q43 0 82 -9t69 -25v12q0 45 -32 66t-98 21q-88 0 -162 -33v110q32 14 83 23.5t102 9.5q130 0 194 -53.5t64 -149.5v-292h-142v44q-61 -59 -164 -59q-88 0 -143.5 44.5zM339 99q30 14 47 39v48
q-51 34 -112 34q-42 0 -64.5 -17.5t-22.5 -51.5q0 -32 22 -49t63 -17q37 0 67 14z" />
    <glyph glyph-name="AEacute" unicode="&#x1fc;" horiz-adv-x="920" 
d="M544 918h159l-89 -176h-139zM351 699h537v-127h-301v-162h214v-122h-214v-161h301v-127h-453v158h-168l-72 -158h-163zM435 275v276h-2l-117 -276h119z" />
    <glyph glyph-name="aeacute" unicode="&#x1fd;" horiz-adv-x="964" 
d="M457 711h159l-89 -176h-139zM88.5 29q-56.5 44 -56.5 122q0 80 53.5 124.5t149.5 44.5q43 0 82 -9t69 -25v12q0 45 -32 66t-98 21q-88 0 -162 -33v110q32 14 83 23.5t102 9.5q124 0 192 -66q34 31 83.5 48.5t109.5 17.5q86 0 146 -32t91 -88.5t31 -127.5v-59h-395
q17 -94 171 -94q46 0 95 8t85 22v-106q-35 -15 -89 -24t-109 -9q-69 0 -125 19t-96 55q-43 -36 -95.5 -55t-131.5 -19q-97 0 -153.5 44zM789 283q-3 49 -36 75.5t-91 26.5q-57 0 -89.5 -27.5t-35.5 -74.5h252zM339 98.5q30 13.5 47 37.5v50q-51 34 -112 34
q-42 0 -64.5 -17.5t-22.5 -51.5q0 -32 22 -49t63 -17q37 0 67 13.5z" />
    <glyph glyph-name="Oslashacute" unicode="&#x1fe;" horiz-adv-x="810" 
d="M396 918h159l-89 -176h-139zM216 30q-85 46 -134.5 129t-49.5 190t49 190t134.5 129t190.5 46q39 0 81 -8l32 78h123l-47 -116q85 -46 134 -129t49 -190t-49 -189.5t-133.5 -128.5t-189.5 -46q-40 0 -83 8l-31 -79h-123zM433 570q-18 2 -27 2q-62 0 -111.5 -27.5
t-78.5 -78t-29 -117.5q0 -59 22 -105.5t62 -76.5zM515.5 152.5q49.5 27.5 78.5 78t29 118.5q0 58 -22.5 104.5t-61.5 75.5l-162 -403q10 -1 29 -1q60 0 109.5 27.5z" />
    <glyph glyph-name="oslashacute" unicode="&#x1ff;" horiz-adv-x="642" 
d="M265 711h159l-89 -176h-139zM169 16q-65 31 -101 89t-36 135q0 75 35.5 133t101 90t152.5 32q14 0 40 -2l29 73h119l-41 -101q67 -31 104 -89.5t37 -135.5t-35.5 -134.5t-100.5 -89t-152 -31.5q-22 0 -45 3l-29 -74h-119zM314 377q-59 -2 -93 -39t-34 -98q0 -58 33 -96z
M418.5 141q35.5 37 35.5 99q0 64 -36 100l-95 -237q60 1 95.5 38z" />
    <glyph glyph-name="Scommaaccent" unicode="&#x218;" horiz-adv-x="568" 
d="M135 -3q-63 12 -103 32v134q53 -26 110 -39t109 -13q58 0 88 20t30 56q0 26 -15 44t-43.5 32.5t-87.5 38.5q-98 40 -142 89.5t-44 122.5q0 59 32 104.5t90 70.5t134 25q62 0 110 -10t94 -31v-130q-88 44 -176 44q-56 0 -88 -19.5t-32 -55.5q0 -26 15 -43t42 -30t88 -38
q71 -30 111 -57.5t59 -65t19 -92.5q0 -95 -68.5 -148t-204.5 -53q-64 0 -127 12zM203 -53h156l-101 -206h-138z" />
    <glyph glyph-name="scommaaccent" unicode="&#x219;" horiz-adv-x="504" 
d="M133.5 -3.5q-61.5 11.5 -96.5 32.5v118q40 -24 96 -39t104 -15q41 0 60 7t19 26q0 15 -11 24.5t-33.5 17t-74.5 22.5q-61 18 -95.5 36.5t-52 46.5t-17.5 72q0 75 59.5 112.5t161.5 37.5q50 0 103.5 -10.5t82.5 -27.5v-115q-29 19 -75.5 31t-90.5 12q-41 0 -63.5 -8
t-22.5 -30q0 -19 21.5 -29t80.5 -25l20 -5q63 -17 98 -37.5t49.5 -49t14.5 -71.5q0 -66 -57 -105.5t-165 -39.5q-54 0 -115.5 11.5zM184 -53h156l-101 -206h-138z" />
    <glyph glyph-name="uni021A" unicode="&#x21a;" horiz-adv-x="590" 
d="M219 572h-204v127h560v-127h-204v-572h-152v572zM213 -53h156l-101 -207h-138z" />
    <glyph glyph-name="uni021B" unicode="&#x21b;" horiz-adv-x="387" 
d="M125.5 31.5q-43.5 46.5 -43.5 129.5v210h-70v109h70v144h151v-144h113v-109h-113v-190q0 -42 16 -60.5t57 -18.5q33 0 63 16v-113q-46 -20 -116 -20q-84 0 -127.5 46.5zM167 -53h156l-101 -207h-138z" />
    <glyph glyph-name="uni0237" unicode="&#x237;" horiz-adv-x="260" 
d="M-85 -216v121q26 -13 65 -13q38 0 57 19t19 60v509h151v-526q0 -92 -55 -138.5t-147 -46.5q-56 0 -90 15z" />
    <glyph glyph-name="uni0251" unicode="&#x251;" horiz-adv-x="665" 
d="M154.5 16.5q-57.5 31.5 -90 89t-32.5 133.5q0 75 32 133t90 90.5t132 32.5q54 0 99 -15t76 -43v43h151v-480h-146v52q-37 -35 -80.5 -51t-99.5 -16q-74 0 -131.5 31.5zM408.5 127q36.5 25 52.5 67v91q-14 41 -51.5 66.5t-84.5 25.5q-61 0 -99.5 -38t-38.5 -100
t38.5 -99.5t99.5 -37.5q47 0 83.5 25z" />
    <glyph glyph-name="uni0259" unicode="&#x259;" horiz-adv-x="604" 
d="M154.5 17q-60.5 32 -91.5 88t-31 127v62h396q-15 91 -172 91q-47 0 -96 -8t-84 -22v107q35 15 90 24t110 9q138 0 217 -67t79 -187q0 -118 -70.5 -187t-201.5 -69q-85 0 -145.5 32zM392 122q33 27 36 74h-253q3 -49 36 -75t91 -26q57 0 90 27z" />
    <glyph glyph-name="uni02BB" unicode="&#x2bb;" horiz-adv-x="275" 
d="M114 714h128l-65 -198h-145z" />
    <glyph glyph-name="uni02BC" unicode="&#x2bc;" horiz-adv-x="275" 
d="M97 714h145l-81 -198h-129z" />
    <glyph glyph-name="uni02BE" unicode="&#x2be;" 
d="M-82 619q33 0 49 11.5t16 39.5t-16 40t-49 12v104q77 0 121.5 -39t44.5 -117q0 -77 -45 -116.5t-121 -39.5v105z" />
    <glyph glyph-name="uni02BF" unicode="&#x2bf;" 
d="M-37 553.5q-45 39.5 -45 116.5q0 78 44.5 117t121.5 39v-104q-33 0 -49 -12t-16 -40t16 -39.5t49 -11.5v-105q-76 0 -121 39.5z" />
    <glyph glyph-name="circumflex" unicode="&#x2c6;" horiz-adv-x="502" 
d="M184 760h134l151 -176h-150l-68 92l-68 -92h-151z" />
    <glyph glyph-name="caron" unicode="&#x2c7;" horiz-adv-x="502" 
d="M32 760h151l68 -93l68 93h150l-151 -176h-134z" />
    <glyph glyph-name="uni02C8" unicode="&#x2c8;" 
d="M-57 766h111v-191h-111v191z" />
    <glyph glyph-name="uni02C9" unicode="&#x2c9;" horiz-adv-x="589" 
d="M120 682h346v-98h-346v98z" />
    <glyph glyph-name="uni02CA" unicode="&#x2ca;" 
d="M-49 755h159l-89 -176h-139z" />
    <glyph glyph-name="uni02CB" unicode="&#x2cb;" 
d="M-31 755h140l-69 -176h-159z" />
    <glyph glyph-name="uni02CC" unicode="&#x2cc;" 
d="M-57 -59h111v-191h-111v191z" />
    <glyph glyph-name="breve" unicode="&#x2d8;" horiz-adv-x="409" 
d="M77.5 612q-45.5 44 -45.5 118h113q0 -31 15 -47.5t44 -16.5t44 16.5t15 47.5h113q0 -74 -45.5 -118t-126.5 -44t-126.5 44z" />
    <glyph glyph-name="dotaccent" unicode="&#x2d9;" horiz-adv-x="208" 
d="M53.5 594.5q-21.5 20.5 -21.5 50.5t21.5 51t51.5 21q29 0 50 -21t21 -51t-21 -50.5t-50 -20.5q-30 0 -51.5 20.5z" />
    <glyph glyph-name="ring" unicode="&#x2da;" horiz-adv-x="331" 
d="M98.5 539.5q-30.5 17.5 -48.5 48t-18 66.5t18 66.5t48.5 48t66.5 17.5t66.5 -18t48.5 -48t18 -66t-18 -66.5t-48.5 -48t-66.5 -17.5t-66.5 17.5zM199 619.5q14 14.5 14 34.5t-14 34t-34 14t-34.5 -14t-14.5 -34t14.5 -34.5t34.5 -14.5t34 14.5z" />
    <glyph glyph-name="ogonek" unicode="&#x2db;" horiz-adv-x="281" 
d="M66 -191q-34 24 -34 71q0 38 19.5 68.5t52.5 51.5h139q-40 -23 -59.5 -45t-19.5 -47q0 -17 10 -26.5t27 -9.5q24 0 48 11v-84q-42 -14 -95 -14q-54 0 -88 24z" />
    <glyph glyph-name="tilde" unicode="&#x2dc;" horiz-adv-x="463" 
d="M32 700q33 43 103 43q22 0 43.5 -6t55.5 -19q29 -12 50.5 -18.5t43.5 -6.5q63 0 102 50v-115q-33 -42 -102 -42q-25 0 -48.5 6.5t-54.5 19.5q-31 12 -50 18t-40 6q-61 0 -103 -51v115z" />
    <glyph glyph-name="hungarumlaut" unicode="&#x2dd;" horiz-adv-x="518" 
d="M102 747h146l-89 -175h-127zM339 747h146l-88 -175h-127z" />
    <glyph glyph-name="gravecomb" unicode="&#x300;" 
d="M-494 751h159l69 -176h-140z" />
    <glyph glyph-name="acutecomb" unicode="&#x301;" 
d="M-323 751h159l-89 -176h-139z" />
    <glyph glyph-name="uni0302" unicode="&#x302;" 
d="M-68 757h135l151 -176h-150l-68 92l-68 -92h-151z" />
    <glyph glyph-name="tildecomb" unicode="&#x303;" 
d="M-508 700q33 43 103 43q22 0 43.5 -6t55.5 -19q29 -12 50.5 -18.5t43.5 -6.5q63 0 102 50v-115q-33 -42 -102 -42q-25 0 -48.5 6.5t-54.5 19.5q-31 12 -50 18t-40 6q-61 0 -103 -51v115z" />
    <glyph glyph-name="uni0304" unicode="&#x304;" 
d="M-162 682h334v-98h-334v98z" />
    <glyph glyph-name="uni0306" unicode="&#x306;" 
d="M-126.5 612q-45.5 44 -45.5 118h113q0 -31 15 -47.5t44 -16.5q28 0 43.5 16.5t15.5 47.5h113q0 -74 -45.5 -118t-126.5 -44t-126.5 44z" />
    <glyph glyph-name="uni0307" unicode="&#x307;" 
d="M-51.5 594.5q-21.5 20.5 -21.5 50.5t21.5 51t51.5 21q29 0 50 -21t21 -51t-21 -50.5t-50 -20.5q-30 0 -51.5 20.5z" />
    <glyph glyph-name="uni0308" unicode="&#x308;" 
d="M-170 594.5q-21 20.5 -21 50.5t21.5 51t50.5 21t50 -21t21 -51t-21 -50.5t-50 -20.5q-30 0 -51 20.5zM66.5 594.5q-21.5 20.5 -21.5 50.5t21.5 51t51.5 21q29 0 50 -21t21 -51t-21 -50.5t-50 -20.5q-30 0 -51.5 20.5z" />
    <glyph glyph-name="hookabovecomb" unicode="&#x309;" 
d="M-424 638q42 0 63.5 10t21.5 34q0 18 -14 26.5t-46 8.5q-13 0 -33 -3.5t-29 -7.5v75q20 6 51 10.5t58 4.5q73 0 111 -28t38 -75q0 -37 -23.5 -63t-65.5 -35v-29h-132v72z" />
    <glyph glyph-name="uni030A" unicode="&#x30a;" 
d="M-62.5 539.5q-30.5 17.5 -48.5 48t-18 66.5t18 66.5t48.5 48t66.5 17.5t66.5 -18t48.5 -48t18 -66t-18 -66.5t-48.5 -48t-66.5 -17.5t-66.5 17.5zM38 619.5q14 14.5 14 34.5t-14 34t-34 14t-34.5 -14t-14.5 -34t14.5 -34.5t34.5 -14.5t34 14.5z" />
    <glyph glyph-name="uni030B" unicode="&#x30b;" 
d="M-170 755h147l-89 -176h-127zM68 755h146l-88 -176h-127z" />
    <glyph glyph-name="uni030C" unicode="&#x30c;" 
d="M-219 757h151l68 -92l68 92h150l-151 -176h-135z" />
    <glyph glyph-name="uni031B" unicode="&#x31b;" 
d="M-97 631q86 0 86 81v35h120v-44q0 -78 -53 -127t-153 -49v104z" />
    <glyph glyph-name="dotbelowcomb" unicode="&#x323;" 
d="M-51.5 -169q-21.5 21 -21.5 51t21.5 51t51.5 21q29 0 50 -21t21 -51t-21 -51t-50 -21q-30 0 -51.5 21z" />
    <glyph glyph-name="uni0324" unicode="&#x324;" 
d="M-161.5 -169q-21.5 21 -21.5 51t21.5 51t50.5 21t50.5 -21t21.5 -51t-21.5 -51t-50.5 -21t-50.5 21zM58.5 -169q-21.5 21 -21.5 51t21.5 51t50.5 21t50 -21t21 -51t-21 -51t-50 -21t-50.5 21z" />
    <glyph glyph-name="uni0326" unicode="&#x326;" 
d="M-189 -53h156l-101 -207h-138z" />
    <glyph glyph-name="uni0327" unicode="&#x327;" 
d="M-79 -244.5q-28 3.5 -43 9.5l1 77q10 -6 26.5 -9.5t32.5 -3.5q55 0 55 37q0 47 -99 47l34 87h134l-19 -49q43 -6 66 -30.5t23 -66.5q0 -50 -40.5 -76t-111.5 -26q-31 0 -59 3.5z" />
    <glyph glyph-name="uni0328" unicode="&#x328;" 
d="M-71.5 -191q-33.5 24 -33.5 71q0 38 19.5 68.5t52.5 51.5h138q-40 -23 -59.5 -45t-19.5 -47q0 -17 10 -26.5t27 -9.5q26 0 48 11v-84q-40 -14 -95 -14q-54 0 -87.5 24z" />
    <glyph glyph-name="uni032E" unicode="&#x32e;" 
d="M-126.5 -175q-45.5 44 -45.5 118h113q0 -31 15 -47.5t44 -16.5q28 0 43.5 16.5t15.5 47.5h113q0 -74 -45.5 -118t-126.5 -44t-126.5 44z" />
    <glyph glyph-name="uni0331" unicode="&#x331;" 
d="M-162 -64h334v-98h-334v98z" />
    <glyph glyph-name="uni0394" unicode="&#x394;" horiz-adv-x="687" 
d="M32 105l248 609h127l248 -609v-105h-623v105zM507 127l-164 410l-164 -410h328z" />
    <glyph glyph-name="uni03A9" unicode="&#x3a9;" horiz-adv-x="810" 
d="M32 127h113q-51 42 -81.5 104t-30.5 135q0 103 46 182t130.5 122.5t195.5 43.5t195 -43.5t130 -122.5t46 -182q0 -73 -30.5 -135t-81.5 -104h113v-127h-313v114q158 87 158 241q0 65 -27.5 114t-77 76t-112.5 27t-112.5 -27t-77 -76t-27.5 -114q0 -154 158 -241v-114
h-314v127z" />
    <glyph glyph-name="uni03BC" unicode="&#x3bc;" horiz-adv-x="620" 
d="M52 480h151v-286q0 -91 87 -91q38 0 71 18t55 54v305h151v-480h-146v58q-32 -37 -77.5 -55t-95.5 -18q-28 0 -45 7v-211h-151v699z" />
    <glyph glyph-name="pi" unicode="&#x3c0;" horiz-adv-x="685" 
d="M431 31q-46 46 -46 135v187h-131v-353h-152v353h-80v127h595v-127h-80v-171q0 -41 14.5 -59t49.5 -18q34 0 62 15v-118q-40 -17 -99 -17q-87 0 -133 46z" />
    <glyph glyph-name="uni0E01" unicode="&#xe01;" horiz-adv-x="651" 
d="M80 319l-50 85q117 146 301 146q129 0 198.5 -57t69.5 -159v-334h-152v322q0 110 -116 110q-43 0 -76.5 -12t-62.5 -39l39 -64v-317h-151v319z" />
    <glyph glyph-name="uni0E02" unicode="&#xe02;" horiz-adv-x="607" 
d="M159.5 10q-58.5 25 -89.5 70t-31 102v25q0 36 14 64.5t39 64.5q16 22 23 35.5t7 25.5q0 28 -34 28h-56v110h145q45 0 72 -26t27 -68q0 -30 -11 -55.5t-33 -58.5q-21 -33 -31.5 -56t-10.5 -50v-21q0 -47 27.5 -72t80.5 -25q105 0 105 101v331h152v-315q0 -109 -66.5 -172
t-190.5 -63q-80 0 -138.5 25z" />
    <glyph glyph-name="uni0E03" unicode="&#xe03;" horiz-adv-x="620" 
d="M172.5 10q-58.5 25 -89.5 70t-31 102v28q0 34 17 64.5t47 69.5q30 37 34 52q-20 -8 -43 -8q-75 0 -75 85v62h105v-36q0 -28 27 -28q19 0 28 11v53h109v-89q0 -34 -14 -63t-40 -66q-23 -34 -33 -54t-10 -42v-22q0 -46 27 -71t80 -25q105 0 105 101v331h152v-315
q0 -109 -66.5 -172t-190.5 -63q-80 0 -138.5 25z" />
    <glyph glyph-name="uni0E04" unicode="&#xe04;" horiz-adv-x="653" 
d="M52 321q0 111 74.5 170t200.5 59t200 -59t74 -170v-321h-152v322q0 55 -31.5 82.5t-90.5 27.5q-60 0 -91.5 -27.5t-31.5 -82.5v-76q12 18 35.5 28.5t52.5 10.5h78v-116h-86q-35 0 -57.5 -22t-22.5 -57v-90h-152v321z" />
    <glyph glyph-name="uni0E05" unicode="&#xe05;" horiz-adv-x="653" 
d="M52 372q0 81 40 129.5t120 48.5q40 0 69.5 -14t44.5 -39q17 26 46 39.5t69 13.5q81 0 120.5 -48.5t39.5 -129.5v-372h-152v366q0 35 -9 50.5t-35 15.5q-20 0 -29.5 -12.5t-15.5 -39.5h-67q-6 27 -15.5 39.5t-29.5 12.5q-26 0 -35 -15.5t-9 -49.5v-121q12 17 35 28t53 11
h78v-116h-86q-36 0 -58 -23t-22 -56v-90h-152v372z" />
    <glyph glyph-name="uni0E06" unicode="&#xe06;" horiz-adv-x="637" 
d="M279 4q-47 19 -82 56v-60h-145v206q0 36 17 67.5t48 70.5q28 35 33 52q-20 -8 -43 -8q-75 0 -75 85v62h105v-36q0 -28 27 -28q19 0 28 11v53h109v-74q0 -37 -14 -67.5t-41 -73.5q-21 -33 -31.5 -54.5t-10.5 -44.5v-46q22 -37 53 -54.5t73 -17.5q103 0 103 97v335h151
v-344q0 -58 -24 -105t-71 -74t-113 -27q-50 0 -97 19z" />
    <glyph glyph-name="uni0E07" unicode="&#xe07;" horiz-adv-x="639" 
d="M32 468h151l114 -355q74 0 114 44.5t40 126.5q0 74 -28 111t-86 37q-32 0 -64 -10v114q42 14 95 14q119 0 178.5 -69.5t59.5 -196.5q0 -89 -39 -153t-105.5 -97.5t-145.5 -33.5h-134z" />
    <glyph glyph-name="uni0E08" unicode="&#xe08;" horiz-adv-x="591" 
d="M48 294h150l45 -181q69 0 114.5 42.5t45.5 116.5q0 80 -42.5 120t-145.5 40q-48 0 -99 -10t-84 -26v117q40 17 95.5 27t112.5 10q155 0 236.5 -70.5t81.5 -205.5q0 -82 -40.5 -144t-109 -96t-150.5 -34h-137z" />
    <glyph glyph-name="uni0E09" unicode="&#xe09;" horiz-adv-x="618" 
d="M91.5 39.5q-51.5 54.5 -51.5 148.5v115h152v-106q0 -48 23.5 -71t73.5 -23q39 0 72.5 19t52.5 53v104q0 79 -38.5 116t-138.5 37q-51 0 -111.5 -10t-93.5 -26v117q39 16 102.5 26.5t121.5 10.5q164 0 236.5 -67t72.5 -198v-285h-144v60q-30 -36 -77.5 -55.5t-102.5 -19.5
q-98 0 -149.5 54.5z" />
    <glyph glyph-name="uni0E0A" unicode="&#xe0a;" horiz-adv-x="606" 
d="M160 10q-59 25 -90 70t-31 102v25q0 36 14 65t39 65q16 22 23 35.5t7 24.5q0 28 -34 28h-56v110h145q45 0 72 -26t27 -68q0 -30 -11 -55.5t-33 -58.5q-21 -33 -31.5 -56t-10.5 -50v-21q0 -47 28 -72t80 -25q55 0 83.5 30.5t28.5 88.5q0 122 -95 122v73l97 133h161
l-109 -149q53 -27 75.5 -70.5t22.5 -110.5q0 -69 -31.5 -122t-91.5 -83t-141 -30q-79 0 -138 25z" />
    <glyph glyph-name="uni0E0B" unicode="&#xe0b;" horiz-adv-x="623" 
d="M177 10q-59 25 -90 70t-31 102v28q0 35 16.5 66t45.5 68q3 4 15.5 22t16.5 30q-20 -8 -43 -8q-75 0 -75 85v62h105v-36q0 -28 27 -28q19 0 28 11v53h109v-89q0 -34 -13.5 -63t-38.5 -66q-22 -32 -32 -53t-10 -43v-21q0 -47 28 -72t80 -25q55 0 83.5 30.5t28.5 88.5
q0 122 -95 122v73l97 133h161l-109 -149q53 -27 75.5 -70.5t22.5 -110.5q0 -69 -31.5 -122t-91.5 -83t-141 -30q-79 0 -138 25z" />
    <glyph glyph-name="uni0E0C" unicode="&#xe0c;" horiz-adv-x="995" 
d="M648.5 3.5q-44.5 18.5 -78.5 55.5v-59h-143v322q0 56 -26 83t-80 27q-40 0 -70.5 -12t-58.5 -39l39 -64v-157q0 -24 11 -34t36 -10h51v-116h-134q-55 0 -85 31.5t-30 87.5v200l-50 85q57 71 128 108.5t163 37.5q124 0 190 -57.5t66 -158.5v-159q44 -72 119 -72
q96 0 96 97v335h151v-344q0 -59 -23 -105.5t-68.5 -73.5t-109.5 -27q-49 0 -93.5 18.5z" />
    <glyph glyph-name="uni0E0D" unicode="&#xe0d;" horiz-adv-x="1007" 
d="M585 -87.5q-55 10.5 -90 28.5v117q92 -48 202 -48q62 0 100 15t38 45q0 14 -7 27q-61 -28 -139 -28q-82 0 -141.5 28t-90 79t-30.5 118v28q0 56 -26 83t-80 27q-40 0 -70.5 -12t-58.5 -39l39 -64v-157q0 -24 11 -34t36 -10h51v-116h-134q-55 0 -85 31.5t-30 87.5v200
l-50 85q57 71 128 108.5t163 37.5q124 0 190 -57.5t66 -158.5v-26q0 -59 26 -90t86 -31q112 0 112 121v227h152v-241q0 -68 -34 -121q25 -23 36.5 -49t11.5 -58q0 -78 -76 -121t-194 -43q-57 0 -112 10.5z" />
    <glyph glyph-name="uni0E0E" unicode="&#xe0e;" horiz-adv-x="665" 
d="M163 -110q29 25 74.5 39t93.5 14q80 0 130 -30v409q0 110 -116 110q-81 0 -135 -48l55 -67v-197q0 -56 -30 -88t-86 -32h-117v116h40q24 0 32.5 9t8.5 34v160l-70 85q53 70 129.5 108t173.5 38q128 0 197.5 -57t69.5 -159v-555h-130q-62 51 -152 51q-46 0 -91 -15.5
t-77 -42.5v118z" />
    <glyph glyph-name="uni0E0F" unicode="&#xe0f;" horiz-adv-x="665" 
d="M154.5 -215.5q-30.5 8.5 -51.5 23.5v112q44 -29 101 -29q36 0 60 16t31 49h77l89 -52v418q0 110 -116 110q-81 0 -135 -48l55 -67v-197q0 -56 -30 -88t-86 -32h-117v116h40q24 0 32.5 9t8.5 34v160l-70 85q53 70 129.5 108t173.5 38q128 0 197.5 -57t69.5 -159v-555h-139
l-114 65q-44 -68 -143 -68q-32 0 -62.5 8.5z" />
    <glyph glyph-name="uni0E10" unicode="&#xe10;" horiz-adv-x="618" 
d="M48 294h150l45 -181q69 0 114.5 42.5t45.5 116.5q0 80 -42.5 120t-145.5 40q-48 0 -99 -10t-84 -26v117q40 17 95.5 27t112.5 10q90 0 159 -26l44 51h165l-106 -123q56 -70 56 -178q0 -82 -40.5 -144t-109 -96t-150.5 -34h-137zM88.5 -215.5q-31.5 8.5 -51.5 23.5v102
q43 -29 101 -29q36 0 58 17t33 52h70l96 -57v78h150v-192h-134l-117 68q-22 -38 -56 -54.5t-85 -16.5q-33 0 -64.5 8.5z" />
    <glyph glyph-name="uni0E11" unicode="&#xe11;" horiz-adv-x="641" 
d="M65 210q0 36 15 67t41 70q23 34 28 49q-20 -8 -43 -8q-36 0 -55 20t-19 65v62h105v-36q0 -28 27 -28q19 0 28 11v53h109v-34q24 22 61.5 35.5t75.5 13.5q80 0 115.5 -47t35.5 -128v-375h-152v373q0 58 -53 58q-61 0 -97 -47q-9 -26 -33 -66q-19 -31 -28 -53.5t-9 -55.5
v-209h-152v210z" />
    <glyph glyph-name="uni0E12" unicode="&#xe12;" horiz-adv-x="1047" 
d="M103 53.5q-71 68.5 -71 201.5q0 91 26.5 157.5t73.5 102t107 35.5q71 0 107 -53q19 27 52 40t74 13q76 0 116.5 -46.5t40.5 -122.5v-206q46 -72 119 -72q96 0 96 97v335h151v-344q0 -59 -23 -105.5t-68.5 -73.5t-109.5 -27q-49 0 -93.5 18.5t-78.5 55.5v-59h-143v366
q0 34 -9.5 50t-34.5 16q-23 0 -35 -14t-18 -40h-71q-3 27 -13 40.5t-31 13.5q-36 0 -57.5 -45t-21.5 -132q0 -78 34 -115t106 -37q38 0 68 11v-116q-39 -13 -96 -13q-126 0 -197 68.5z" />
    <glyph glyph-name="uni0E13" unicode="&#xe13;" horiz-adv-x="994" 
d="M479 43q-52 58 -52 148v131q0 56 -26 83t-80 27q-40 0 -70.5 -12t-58.5 -39l39 -64v-157q0 -24 11 -34t36 -10h51v-116h-134q-55 0 -85 31.5t-30 87.5v200l-50 85q57 71 128 108.5t163 37.5q124 0 190 -57.5t66 -158.5v-134q0 -97 96 -97q38 0 68 18.5t49 53.5v360h151
v-535h-143v59q-33 -37 -77 -55.5t-95 -18.5q-95 0 -147 58z" />
    <glyph glyph-name="uni0E14" unicode="&#xe14;" horiz-adv-x="691" 
d="M104 54q-72 69 -72 202q0 139 83 216.5t229 77.5q151 0 222.5 -70t71.5 -184v-296h-151v297q0 66 -33.5 100.5t-109.5 34.5q-72 0 -114 -45t-42 -131q0 -79 34.5 -116t105.5 -37q38 0 68 11v-116q-39 -13 -96 -13q-124 0 -196 69z" />
    <glyph glyph-name="uni0E15" unicode="&#xe15;" horiz-adv-x="691" 
d="M104 53.5q-72 68.5 -72 201.5q0 91 26 157.5t73.5 102t109.5 35.5q37 0 64.5 -14t44.5 -39q19 27 52.5 40t75.5 13q76 0 118 -46.5t42 -122.5v-381h-151v366q0 34 -10.5 50t-35.5 16q-44 0 -55 -54h-71q-7 54 -47 54q-36 0 -58 -45t-22 -132q0 -78 33.5 -115t106.5 -37
q38 0 68 11v-116q-39 -13 -96 -13q-124 0 -196 68.5z" />
    <glyph glyph-name="uni0E16" unicode="&#xe16;" horiz-adv-x="651" 
d="M110 31.5q-30 31.5 -30 87.5v200l-50 85q117 146 301 146q129 0 198.5 -57t69.5 -159v-334h-152v322q0 110 -116 110q-43 0 -76.5 -12t-62.5 -39l39 -64v-157q0 -24 11 -34t36 -10h51v-116h-134q-55 0 -85 31.5z" />
    <glyph glyph-name="uni0E17" unicode="&#xe17;" horiz-adv-x="637" 
d="M52 535h145v-61q36 36 85 56t98 20q101 0 152.5 -54.5t51.5 -143.5v-352h-151v339q0 93 -98 93q-41 0 -74.5 -18t-56.5 -55v-359h-152v535z" />
    <glyph glyph-name="uni0E18" unicode="&#xe18;" horiz-adv-x="565" 
d="M101 29q-67 44 -67 119v64h149v-51q0 -36 27 -52t74 -16q46 0 70.5 15t24.5 45q0 27 -12.5 41.5t-40.5 23.5t-93 24q-103 23 -152 56t-49 99q0 77 68 115t176 38q63 0 125.5 -12.5t98.5 -31.5v-119q-36 22 -92 36t-111 14q-56 0 -83.5 -8t-27.5 -32q0 -21 23.5 -31.5
t85.5 -25.5q13 -2 53 -13q69 -18 108.5 -40t57.5 -54t18 -80q0 -75 -64.5 -121.5t-183.5 -46.5q-116 0 -183 44z" />
    <glyph glyph-name="uni0E19" unicode="&#xe19;" horiz-adv-x="637" 
d="M148 12q-47 27 -71.5 74t-24.5 105v344h152v-335q0 -97 103 -97q42 0 72.5 17.5t53.5 54.5v360h151v-535h-144v60q-35 -37 -82.5 -56t-97.5 -19q-65 0 -112 27z" />
    <glyph glyph-name="uni0E1A" unicode="&#xe1a;" horiz-adv-x="653" 
d="M183 14.5q-62 29.5 -96 81.5t-34 118v321h152v-311q0 -58 30.5 -89.5t92.5 -31.5t92 31.5t30 89.5v311h152v-321q0 -66 -34 -118t-96 -81.5t-144 -29.5q-83 0 -145 29.5z" />
    <glyph glyph-name="uni0E1B" unicode="&#xe1b;" horiz-adv-x="653" 
d="M182 14.5q-62 29.5 -96 81.5t-34 118v321h152v-311q0 -58 30.5 -89.5t92.5 -31.5t92 31.5t30 89.5v490h152v-500q0 -66 -34 -118t-96 -81.5t-144 -29.5q-83 0 -145 29.5z" />
    <glyph glyph-name="uni0E1C" unicode="&#xe1c;" horiz-adv-x="661" 
d="M52 412q0 59 32 91t91 32h108v-117h-36q-24 0 -34 -10t-10 -36v-174l101 154h53l101 -154v337h150v-535h-136l-142 216l-142 -216h-136v412z" />
    <glyph glyph-name="uni0E1D" unicode="&#xe1d;" horiz-adv-x="661" 
d="M52 412q0 59 32 91t91 32h108v-117h-36q-24 0 -34 -10t-10 -36v-174l101 154h53l101 -154v516h150v-714h-136l-142 216l-142 -216h-136v412z" />
    <glyph glyph-name="uni0E1E" unicode="&#xe1e;" horiz-adv-x="792" 
d="M22 535h152l75 -327l92 327h110l92 -327l75 327h152l-149 -535h-129l-96 333l-96 -333h-129z" />
    <glyph glyph-name="uni0E1F" unicode="&#xe1f;" horiz-adv-x="767" 
d="M22 535h152l75 -327l92 327h110l92 -327l105 506h147l-174 -714h-129l-96 333l-96 -333h-129z" />
    <glyph glyph-name="uni0E20" unicode="&#xe20;" horiz-adv-x="663" 
d="M30 116h40q24 0 32.5 9t8.5 34v160l-70 85q53 70 129 108t173 38q128 0 197.5 -57t69.5 -159v-334h-151v322q0 110 -117 110q-42 0 -74.5 -12t-60.5 -36l55 -67v-197q0 -56 -30 -88t-85 -32h-117v116z" />
    <glyph glyph-name="uni0E21" unicode="&#xe21;" horiz-adv-x="637" 
d="M279 4q-47 19 -82 56v-60h-145v535h152v-360q22 -37 53 -54.5t73 -17.5q103 0 103 97v335h151v-344q0 -58 -24 -105t-71 -74t-113 -27q-50 0 -97 19z" />
    <glyph glyph-name="uni0E22" unicode="&#xe22;" horiz-adv-x="646" 
d="M107 30.5q-75 45.5 -75 130.5q0 39 21.5 70.5t57.5 45.5q-33 17 -53.5 49t-20.5 70q0 70 49.5 112t143.5 42q29 0 57.5 -4t43.5 -9v-114q-14 6 -33.5 10t-35.5 4q-70 0 -70 -52q0 -27 17.5 -40.5t54.5 -13.5h67v-107h-67q-76 0 -76 -60q0 -32 30.5 -49.5t88.5 -17.5
q70 0 102.5 28.5t32.5 85.5v325h152v-324q0 -57 -29 -108.5t-93 -85t-165 -33.5q-125 0 -200 45.5z" />
    <glyph glyph-name="uni0E23" unicode="&#xe23;" horiz-adv-x="521" 
d="M132.5 -3.5q-60.5 11.5 -95.5 34.5v116q44 -26 98.5 -40t98.5 -14q53 0 77.5 10.5t24.5 37.5q0 24 -23.5 37t-87.5 33l-25 8q-86 27 -127 65t-41 104q0 77 62 119.5t167 42.5q57 0 110 -12t85 -31v-119q-32 22 -79.5 35.5t-93.5 13.5q-97 0 -97 -49q0 -24 23 -37t82 -31
l36 -11q63 -20 98.5 -44t49.5 -54t14 -73q0 -69 -59.5 -111t-177.5 -42q-59 0 -119.5 11.5z" />
    <glyph glyph-name="uni0E24" unicode="&#xe24;" horiz-adv-x="651" 
d="M447 322q0 110 -116 110q-43 0 -76.5 -12t-62.5 -39l39 -64v-157q0 -24 11 -34t36 -10h51v-116h-134q-55 0 -85 31.5t-30 87.5v200l-50 85q117 146 301 146q129 0 198.5 -57t69.5 -159v-530h-152v518z" />
    <glyph glyph-name="uni0E25" unicode="&#xe25;" horiz-adv-x="624" 
d="M86.5 31q-54.5 46 -54.5 130t59.5 132t163.5 48q97 0 166 -32v21q0 54 -35.5 80t-114.5 26q-49 0 -96 -10t-84 -28v114q33 16 91 27t117 11q134 0 203.5 -59.5t69.5 -159.5v-331h-151v199q-58 30 -136 30q-51 0 -74.5 -17t-23.5 -53q0 -33 21.5 -49.5t68.5 -16.5
q33 0 56 10v-105q-39 -13 -100 -13q-92 0 -146.5 46z" />
    <glyph glyph-name="uni0E26" unicode="&#xe26;" horiz-adv-x="663" 
d="M459 322q0 110 -117 110q-42 0 -74.5 -12t-60.5 -36l55 -67v-197q0 -56 -30 -88t-85 -32h-117v116h40q24 0 32.5 9t8.5 34v160l-70 85q53 70 129 108t173 38q128 0 197.5 -57t69.5 -159v-530h-151v518z" />
    <glyph glyph-name="uni0E27" unicode="&#xe27;" horiz-adv-x="566" 
d="M32 28v118q62 -43 170 -43q84 0 130 40.5t46 123.5t-46 124t-130 41q-104 0 -166 -44v118q35 22 87 33t112 11q140 0 219.5 -74.5t79.5 -208.5t-79.5 -208t-219.5 -74q-133 0 -203 43z" />
    <glyph glyph-name="uni0E28" unicode="&#xe28;" horiz-adv-x="665" 
d="M52 321q0 111 74.5 170t200.5 59q64 0 115 -18l36 43h165l-94 -108q52 -52 52 -146v-321h-152v322q0 55 -31.5 82.5t-90.5 27.5q-60 0 -91.5 -27.5t-31.5 -82.5v-76q12 18 35.5 28.5t52.5 10.5h78v-116h-86q-35 0 -57.5 -22t-22.5 -57v-90h-152v321z" />
    <glyph glyph-name="uni0E29" unicode="&#xe29;" horiz-adv-x="659" 
d="M182 14.5q-62 29.5 -96 81.5t-34 118v321h152v-311q0 -58 30.5 -89.5t92.5 -31.5t92 31.5t30 89.5v36h-107v116h107v159h152v-159h50v-116h-50v-46q0 -66 -34 -118t-96 -81.5t-144 -29.5q-83 0 -145 29.5z" />
    <glyph glyph-name="uni0E2A" unicode="&#xe2a;" horiz-adv-x="638" 
d="M86.5 31q-54.5 46 -54.5 130t59.5 132t163.5 48q97 0 166 -32v21q0 54 -35.5 80t-114.5 26q-49 0 -96 -10t-84 -28v114q33 16 91 27t117 11q67 0 125 -20l39 45h165l-99 -115q43 -49 43 -129v-331h-151v199q-58 30 -136 30q-51 0 -74.5 -17t-23.5 -53q0 -33 21.5 -49.5
t68.5 -16.5q33 0 56 10v-105q-39 -13 -100 -13q-92 0 -146.5 46z" />
    <glyph glyph-name="uni0E2B" unicode="&#xe2b;" horiz-adv-x="630" 
d="M52 535h152v-193l203 193h173l-144 -137q78 -22 109.5 -68t31.5 -122v-208h-152v195q0 51 -17.5 76t-63.5 36l-140 -131v-176h-152v535z" />
    <glyph glyph-name="uni0E2C" unicode="&#xe2c;" horiz-adv-x="667" 
d="M52 535h151v-332l104 172h54l104 -172v191q0 50 -21.5 71.5t-77.5 21.5v78l106 149h169l-115 -159q52 -19 71 -56.5t19 -101.5v-397h-136l-146 235l-146 -235h-136v535z" />
    <glyph glyph-name="uni0E2D" unicode="&#xe2d;" horiz-adv-x="619" 
d="M140 -1.5q-65 13.5 -108 37.5v281h253v-111h-104v-86q31 -17 91 -17q159 0 159 166q0 85 -46 124t-155 39q-50 0 -102.5 -10.5t-88.5 -29.5v118q41 19 99 29.5t121 10.5q161 0 244.5 -73.5t83.5 -207.5q0 -132 -82 -208t-233 -76q-67 0 -132 13.5z" />
    <glyph glyph-name="uni0E2E" unicode="&#xe2e;" horiz-adv-x="644" 
d="M140 -1.5q-65 13.5 -108 37.5v281h253v-111h-104v-86q31 -17 91 -17q79 0 119 43t40 126t-48.5 121.5t-152.5 38.5q-50 0 -102.5 -10.5t-88.5 -29.5v118q41 19 99 29.5t121 10.5q86 0 153 -26l45 51h165l-104 -121q69 -74 69 -182q0 -87 -36.5 -152t-107.5 -100t-171 -35
q-67 0 -132 13.5z" />
    <glyph glyph-name="uni0E2F" unicode="&#xe2f;" horiz-adv-x="573" 
d="M369 235q-59 -31 -151 -31q-88 0 -143 45.5t-55 126.5q0 82 51.5 128t132.5 46q63 0 102 -14v-104q-27 9 -56 9q-35 0 -54.5 -15.5t-19.5 -47.5q0 -63 83 -63q62 0 110 32v188h152v-535h-152v235z" />
    <glyph glyph-name="uni0E30" unicode="&#xe30;" horiz-adv-x="345" 
d="M54 335.5q-22 22.5 -22 68.5v78h136v-43q0 -13 6 -19t21 -6h118v-101h-187q-50 0 -72 22.5zM54 66q-22 23 -22 69v78h136v-43q0 -13 6 -19t21 -6h118v-102h-187q-50 0 -72 23z" />
    <glyph glyph-name="uni0E31" unicode="&#xe31;" 
d="M-355 698v73h136v-49q0 -14 5.5 -19.5t20.5 -5.5h228v-96h-294q-96 0 -96 97z" />
    <glyph glyph-name="uni0E32" unicode="&#xe32;" horiz-adv-x="417" 
d="M213 333q0 52 -22 75.5t-77 23.5q-53 0 -107 -27v115q24 12 64.5 21t78.5 9q105 0 160 -56t55 -162v-332h-152v333z" />
    <glyph glyph-name="uni0E33" unicode="&#xe33;" horiz-adv-x="418" 
d="M-222 621.5q-35 34.5 -35 85.5q0 50 35.5 85.5t85.5 35.5t85 -35.5t35 -85.5q0 -51 -35 -85.5t-85 -34.5q-51 0 -86 34.5zM-108.5 677.5q11.5 12.5 11.5 28.5q0 17 -11.5 29t-27.5 12q-17 0 -28.5 -12t-11.5 -29q0 -16 11.5 -28.5t28.5 -12.5q16 0 27.5 12.5zM214 333
q0 52 -22 75.5t-77 23.5q-53 0 -107 -27v115q24 12 64.5 21t78.5 9q105 0 160 -56t55 -162v-332h-152v333z" />
    <glyph glyph-name="uni0E34" unicode="&#xe34;" 
d="M-516 697h463v-96h-463v96z" />
    <glyph glyph-name="uni0E35" unicode="&#xe35;" 
d="M-515 697h326v106h137v-202h-463v96z" />
    <glyph glyph-name="uni0E36" unicode="&#xe36;" 
d="M-514 697h266q-1 6 -1 16q0 45 30 74.5t77 29.5q50 0 80 -31.5t30 -75.5q0 -47 -33.5 -78t-84.5 -31h-364v96zM-111.5 680.5q12.5 12.5 12.5 29.5t-12.5 30t-29.5 13t-29.5 -13t-12.5 -30t12.5 -29.5t29.5 -12.5t29.5 12.5z" />
    <glyph glyph-name="uni0E37" unicode="&#xe37;" 
d="M-514 697h186v106h105v-106h67v106h104v-202h-462v96z" />
    <glyph glyph-name="uni0E38" unicode="&#xe38;" 
d="M-184 -176q0 18 -7 25.5t-25 7.5h-33v96h105q54 0 74.5 -22t20.5 -76v-129h-135v98z" />
    <glyph glyph-name="uni0E39" unicode="&#xe39;" 
d="M-312.5 -251q-40.5 29 -40.5 77v18q0 13 -4.5 18t-16.5 5h-33v86h113q30 0 41.5 -13.5t11.5 -42.5v-55q0 -36 38 -36q37 0 37 36v111h112v-123q0 -48 -37.5 -79t-106.5 -31q-74 0 -114.5 29z" />
    <glyph glyph-name="uni0E3A" unicode="&#xe3a;" 
d="M-180.5 -175.5q-22.5 22.5 -22.5 54.5q0 31 22.5 54t54.5 23t55 -23t23 -54t-23 -54t-55 -23t-54.5 22.5z" />
    <glyph glyph-name="uni0E3F" unicode="&#xe3f;" horiz-adv-x="661" 
d="M258 0h-198v699h198v103h108v-103h26q96 0 149.5 -48t53.5 -140q0 -49 -23.5 -88.5t-62.5 -60.5q109 -36 109 -161q0 -62 -28 -107.5t-75.5 -69.5t-105.5 -24h-43v-103h-108v103zM258 408v191h-72v-191h72zM372 408q43 0 69 23.5t26 71.5q0 55 -25.5 75.5t-75.5 20.5
v-191h6zM258 100v206h-72v-206h72zM380 100q53 0 81.5 22t28.5 78t-30 81t-87 25h-7v-206h14z" />
    <glyph glyph-name="uni0E40" unicode="&#xe40;" horiz-adv-x="312" 
d="M81.5 31.5q-29.5 31.5 -29.5 87.5v416h152v-375q0 -24 10 -34t33 -10h35v-116h-116q-55 0 -84.5 31.5z" />
    <glyph glyph-name="uni0E41" unicode="&#xe41;" horiz-adv-x="593" 
d="M81.5 31.5q-29.5 31.5 -29.5 87.5v416h152v-375q0 -24 10 -34t33 -10h35v-116h-116q-55 0 -84.5 31.5zM362.5 31.5q-29.5 31.5 -29.5 87.5v416h151v-375q0 -24 10 -34t34 -10h35v-116h-116q-55 0 -84.5 31.5z" />
    <glyph glyph-name="uni0E42" unicode="&#xe42;" horiz-adv-x="346" 
d="M126.5 31.5q-29.5 31.5 -29.5 87.5v359q0 68 -26 106.5t-84 60.5v107h357v-117h-161q66 -51 66 -160v-315q0 -24 10 -34t33 -10h35v-116h-116q-55 0 -84.5 31.5z" />
    <glyph glyph-name="uni0E43" unicode="&#xe43;" horiz-adv-x="314" 
d="M75.5 31.5q-29.5 31.5 -29.5 87.5v241q0 47 18 81t50 72q21 24 31.5 41t10.5 35q0 29 -15 42t-51 13q-58 0 -108 -37v116q31 19 73 29t86 10q86 0 128.5 -39.5t42.5 -102.5q0 -37 -14 -64.5t-43 -66.5q-28 -36 -42.5 -64.5t-14.5 -64.5v-200q0 -24 10 -34t33 -10h35v-116
h-116q-55 0 -84.5 31.5z" />
    <glyph glyph-name="uni0E44" unicode="&#xe44;" horiz-adv-x="346" 
d="M112.5 31.5q-29.5 31.5 -29.5 87.5v345q0 118 69 171h-165v117h357v-107q-58 -23 -84 -65t-26 -113v-307q0 -24 10 -34t34 -10h35v-116h-116q-55 0 -84.5 31.5z" />
    <glyph glyph-name="uni0E45" unicode="&#xe45;" horiz-adv-x="417" 
d="M213 333q0 52 -22 75.5t-77 23.5q-53 0 -107 -27v115q24 12 64.5 21t78.5 9q105 0 160 -56t55 -162v-528h-152v529z" />
    <glyph glyph-name="uni0E46" unicode="&#xe46;" horiz-adv-x="634" 
d="M430 372q0 31 -10 45.5t-35 14.5q-41 0 -50 -54h-71q-3 27 -11 40.5t-29 13.5q-48 0 -48 -77q0 -71 74 -71q35 0 68 11v-116q-46 -13 -96 -13q-87 0 -144.5 46t-57.5 139q0 87 44 143t130 56q37 0 64 -14t43 -39q16 26 45 39.5t68 13.5q83 0 125.5 -49.5t42.5 -131.5
v-369h-152v372z" />
    <glyph glyph-name="uni0E47" unicode="&#xe47;" 
d="M-456.5 628.5q-34.5 31.5 -34.5 84.5q0 67 38.5 101t105.5 34h253v-79h-242q-55 0 -55 -45q0 -21 11 -32.5t32 -11.5q23 0 35 13t12 35h79q0 -44 50 -44h61v-83h-59q-34 0 -59.5 12.5t-33.5 31.5q-9 -20 -37 -34t-63 -14q-59 0 -93.5 31.5z" />
    <glyph glyph-name="uni0E48" unicode="&#xe48;" 
d="M-204 779h152v-178h-152v178z" />
    <glyph glyph-name="uni0E49" unicode="&#xe49;" 
d="M-297 665q0 11 -4.5 15.5t-15.5 4.5h-47v103h94q37 0 53.5 -17t16.5 -43v-30h201v-97h-298v64z" />
    <glyph glyph-name="uni0E4A" unicode="&#xe4a;" 
d="M-505 694q0 56 29 90t75 34q30 0 47.5 -10t28.5 -30q23 38 75 38q85 0 85 -92v-42h10q14 0 19 6.5t5 21.5v101h80v-110q0 -46 -27.5 -73t-76.5 -27h-84v85q0 36 -25 36q-17 0 -22.5 -9t-5.5 -27v-19h-64v18q0 18 -5 27.5t-20 9.5q-32 0 -32 -47q0 -40 24 -74h-92
q-24 37 -24 93z" />
    <glyph glyph-name="uni0E4B" unicode="&#xe4b;" 
d="M-203 645h-56v100h56v44h146v-44h56v-100h-56v-44h-146v44z" />
    <glyph glyph-name="uni0E4C" unicode="&#xe4c;" 
d="M-323 677q0 44 23.5 66t74.5 22h225v-95h-160q-15 0 -21.5 -6.5t-6.5 -21.5v-41h-135v76z" />
    <glyph glyph-name="uni0E4D" unicode="&#xe4d;" 
d="M-222 621.5q-35 34.5 -35 85.5q0 50 35.5 85.5t85.5 35.5t85 -35.5t35 -85.5q0 -51 -35 -85.5t-85 -34.5q-51 0 -86 34.5zM-108.5 677.5q11.5 12.5 11.5 28.5q0 17 -11.5 29t-27.5 12q-17 0 -28.5 -12t-11.5 -29q0 -16 11.5 -28.5t28.5 -12.5q16 0 27.5 12.5z" />
    <glyph glyph-name="uni0E4E" unicode="&#xe4e;" 
d="M-278 623.5q-29 23.5 -29 63.5q0 39 22 61.5t59 26.5q-14 17 -14 41q0 33 26 52t67 19q40 0 65 -14v-60q-21 16 -46 16q-29 0 -29 -21t33 -29v-59q-26 8 -44 8q-24 0 -35.5 -8.5t-11.5 -27.5q0 -31 44 -31q35 0 56 17v-61q-26 -17 -82 -17q-52 0 -81 23.5z" />
    <glyph glyph-name="uni0E4F" unicode="&#xe4f;" horiz-adv-x="573" 
d="M158.5 18.5q-58.5 33.5 -92.5 91.5t-34 130q0 71 34 129.5t92.5 92t128.5 33.5t128 -33.5t92 -92t34 -129.5q0 -72 -33.5 -130t-92 -91.5t-128.5 -33.5t-128.5 33.5zM368 98.5q36 20.5 57 57.5t21 84q0 46 -21 82.5t-57 57t-81 20.5t-81.5 -20.5t-57 -57t-20.5 -82.5
q0 -47 20.5 -84t57 -57.5t81.5 -20.5t81 20.5zM193 145q-38 37 -38 95t38 95t95 37q56 0 94 -37t38 -95t-38 -95t-94 -37q-57 0 -95 37zM327 199.5q15 15.5 15 40.5t-15 40t-39 15t-39.5 -15.5t-15.5 -39.5q0 -25 15.5 -40.5t39.5 -15.5t39 15.5z" />
    <glyph glyph-name="uni0E50" unicode="&#xe50;" horiz-adv-x="623" 
d="M166.5 17q-63.5 32 -99 89.5t-35.5 133.5t35.5 133.5t99 89.5t145.5 32t145.5 -32t98.5 -89.5t35 -133.5t-35 -133.5t-98.5 -89.5t-145.5 -32t-145.5 32zM410 138.5q39 37.5 39 101.5q0 62 -39 100t-98 38t-98 -38t-39 -100q0 -64 38.5 -101.5t98.5 -37.5q59 0 98 37.5z
" />
    <glyph glyph-name="uni0E51" unicode="&#xe51;" horiz-adv-x="612" 
d="M252 34q71 16 110 42t55 64t16 96q0 70 -33 106t-104 36q-55 0 -87 -26t-32 -73q0 -42 24 -64.5t69 -22.5q41 0 71 16v-104q-18 -11 -46 -18t-60 -7q-91 0 -147 53t-56 142q0 68 33 118t92.5 76.5t138.5 26.5q138 0 210.5 -69.5t72.5 -187.5q0 -124 -81 -206.5
t-246 -120.5v123z" />
    <glyph glyph-name="uni0E52" unicode="&#xe52;" horiz-adv-x="724" 
d="M139.5 50q-87.5 65 -87.5 197v303h123v-298q0 -162 190 -162q90 0 136.5 33t46.5 96v118q0 20 -8.5 31.5t-25.5 11.5q-19 0 -29 -15t-15 -43h-79q-3 30 -10.5 45t-26.5 15q-18 0 -29 -16.5t-11 -52.5q0 -38 20 -58t55 -20q39 0 66 10v-101q-19 -6 -36 -8.5t-44 -2.5
q-82 0 -129.5 47t-47.5 136q0 75 36.5 127t102.5 52q35 0 58.5 -15.5t35.5 -42.5q14 26 43.5 42t65.5 16q68 0 100 -39t32 -108v-133q0 -70 -42 -122t-112 -80t-153 -28q-138 0 -225.5 65z" />
    <glyph glyph-name="uni0E53" unicode="&#xe53;" horiz-adv-x="664" 
d="M139 13.5q-50 28.5 -78.5 84.5t-28.5 135q0 127 54.5 194.5t143.5 67.5q69 0 103 -48q18 23 48 35.5t66 12.5q75 0 119.5 -42t44.5 -108v-345h-135v328q0 26 -11.5 38t-35.5 12q-45 0 -45 -49v-146h-107v146q0 25 -9 37t-31 12q-32 0 -47 -36t-15 -112q0 -68 24 -98.5
t71 -30.5q20 0 45.5 3.5t38.5 8.5v-117q-46 -11 -100 -11q-65 0 -115 28.5z" />
    <glyph glyph-name="uni0E54" unicode="&#xe54;" horiz-adv-x="627" 
d="M102.5 59.5q-70.5 59.5 -70.5 177.5q0 76 33.5 137t100 96.5t161.5 35.5q60 0 88.5 3.5t43 15.5t21.5 39h135q-21 -85 -75 -126.5t-160 -41.5q-105 0 -155 -37t-50 -122q0 -67 29.5 -98.5t82.5 -31.5h29q-15 15 -24.5 37t-9.5 47q0 64 44.5 101t120.5 37q79 0 120 -20
v-105q-31 20 -77 20q-33 0 -50 -14.5t-17 -42.5q0 -60 74 -60h91v-107h-291q-124 0 -194.5 59.5z" />
    <glyph glyph-name="uni0E55" unicode="&#xe55;" horiz-adv-x="627" 
d="M102.5 59.5q-70.5 59.5 -70.5 177.5q0 98 53.5 165.5t146.5 88.5q-7 18 -7 34q0 48 29.5 76t77.5 28q49 0 77 -28t28 -72q0 -10 -4 -17q29 4 39.5 14t13.5 38h129q-21 -84 -76.5 -125.5t-161.5 -41.5q-104 0 -153 -37.5t-49 -122.5q0 -67 29.5 -98.5t82.5 -31.5h29
q-15 15 -24.5 37t-9.5 47q0 64 44.5 101t120.5 37q79 0 120 -20v-105q-31 20 -77 20q-33 0 -50 -14.5t-17 -42.5q0 -60 74 -60h91v-107h-291q-124 0 -194.5 59.5zM359 501.5q10 10.5 10 25.5t-10 25.5t-26 10.5q-14 0 -24 -10.5t-10 -25.5t10 -25.5t24 -10.5q16 0 26 10.5z
" />
    <glyph glyph-name="uni0E56" unicode="&#xe56;" horiz-adv-x="638" 
d="M200 0q-54 15 -88 45v121q41 -34 92.5 -51t105.5 -17q73 0 111.5 35t38.5 104q0 70 -32.5 105.5t-101.5 35.5q-51 0 -91.5 -26.5t-57.5 -77.5h-97l-68 277h119l33 -140q28 40 76 62t109 22q132 0 194.5 -70.5t62.5 -187.5q0 -72 -34 -129.5t-99.5 -90t-157.5 -32.5
q-61 0 -115 15z" />
    <glyph glyph-name="uni0E57" unicode="&#xe57;" horiz-adv-x="825" 
d="M137 13.5q-49 28.5 -77 84.5t-28 135q0 126 52 194t141 68q68 0 102 -48q18 23 48 35.5t67 12.5q74 0 113.5 -41.5t39.5 -108.5v-233q30 0 45 13.5t15 46.5v378h118v-361q0 -103 -59 -146t-156 -43h-88v330q0 26 -11 38t-36 12q-45 0 -45 -49v-148h-106v148q0 25 -8.5 37
t-30.5 12q-63 0 -63 -150q0 -133 96 -133q20 0 44.5 3t37.5 8v-112q-46 -11 -100 -11q-62 0 -111 28.5z" />
    <glyph glyph-name="uni0E58" unicode="&#xe58;" horiz-adv-x="656" 
d="M84 47.5q-52 62.5 -52 183.5q0 76 34 138.5t100.5 99.5t160.5 37q60 0 88.5 3.5t43 15.5t21.5 39h135q-21 -85 -75 -126.5t-160 -41.5q-107 0 -156.5 -41t-49.5 -128q0 -73 14.5 -104t43.5 -31q25 0 35.5 12.5t10.5 38.5v41h120v-40q0 -25 10 -38.5t34 -13.5q52 0 52 80
q0 32 -14.5 50.5t-41.5 18.5q-32 0 -57 -13v105q34 13 86 13q71 0 114 -45.5t43 -128.5q0 -89 -46 -138t-122 -49q-32 0 -65.5 12.5t-52.5 34.5q-18 -23 -48.5 -35t-67.5 -12q-86 0 -138 62.5z" />
    <glyph glyph-name="uni0E59" unicode="&#xe59;" horiz-adv-x="735" 
d="M133 13.5q-46 28.5 -73.5 84t-27.5 134.5q0 84 26 143t72 89.5t106 30.5q35 0 61.5 -13.5t42.5 -32.5q16 20 44 33t60 13q39 0 64 -12t44 -37l42 104h129l-120 -300h-106l23 58q2 12 2 18q0 23 -11.5 37.5t-35.5 14.5t-37 -12t-13 -33q0 -13 4 -25l98 -308h-126l-99 316
q-11 34 -21.5 48t-37.5 14q-34 0 -52 -37t-18 -110q0 -68 22.5 -99t66.5 -31q31 0 59 11v-116q-39 -11 -87 -11q-55 0 -101 28.5z" />
    <glyph glyph-name="uni0E5A" unicode="&#xe5a;" horiz-adv-x="893" 
d="M369 235q-59 -31 -151 -31q-88 0 -143 45.5t-55 126.5q0 82 51.5 128t132.5 46q63 0 102 -14v-104q-27 9 -56 9q-35 0 -54.5 -15.5t-19.5 -47.5q0 -63 83 -63q62 0 110 32v188h152v-201q21 -19 60 -19q62 0 108 32v188h152v-535h-152v235q-54 -31 -132 -31q-25 0 -36 2
v-206h-152v235z" />
    <glyph glyph-name="uni0E5B" unicode="&#xe5b;" horiz-adv-x="1135" 
d="M106 50q-74 65 -74 188q0 73 30 131.5t85 92t127 33.5q106 0 162.5 -51.5t56.5 -144.5q0 -89 -50.5 -132.5t-127.5 -43.5q-55 0 -91 21v102q14 -11 35.5 -17.5t42.5 -6.5q41 0 62 16.5t21 60.5q0 45 -26 68.5t-85 23.5q-61 0 -96.5 -39t-35.5 -114q0 -152 165 -152
q114 0 166.5 52t52.5 165v103h122l39 -135h2l21 121h98l29 -120h2l18 100h79l35 -101h2l20 44h110v-94h-75l-25 -70h-64l-31 77h-2l-29 -102h-76l-38 117h-2l-32 -138h-78l-35 133h-2q-2 -77 -42 -134.5t-109 -88t-156 -30.5q-127 0 -201 65z" />
    <glyph glyph-name="uni1E0C" unicode="&#x1e0c;" horiz-adv-x="703" 
d="M52 699h243q114 0 199 -42t131 -120t46 -184q0 -174 -101.5 -263.5t-282.5 -89.5h-235v699zM295 127q107 0 164 60t57 166q0 63 -25 113t-73 78t-113 28h-101v-445h91zM240.5 -169q-21.5 21 -21.5 51t21.5 51t51.5 21q29 0 50 -21t21 -51t-21 -51t-50 -21q-30 0 -51.5 21
z" />
    <glyph glyph-name="uni1E0D" unicode="&#x1e0d;" horiz-adv-x="665" 
d="M154.5 16.5q-57.5 31.5 -90 89t-32.5 133.5q0 75 32 133t90 90.5t132 32.5q54 0 99 -15t76 -43v302h151v-739h-146v52q-37 -35 -80.5 -51t-99.5 -16q-74 0 -131.5 31.5zM408.5 127q36.5 25 52.5 67v91q-14 41 -51.5 66.5t-84.5 25.5q-61 0 -99.5 -38t-38.5 -100
t38.5 -99.5t99.5 -37.5q47 0 83.5 25zM279.5 -169q-21.5 21 -21.5 51t21.5 51t51.5 21q29 0 50 -21t21 -51t-21 -51t-50 -21q-30 0 -51.5 21z" />
    <glyph glyph-name="uni1E0E" unicode="&#x1e0e;" horiz-adv-x="703" 
d="M52 699h243q114 0 199 -42t131 -120t46 -184q0 -174 -101.5 -263.5t-282.5 -89.5h-235v699zM295 127q107 0 164 60t57 166q0 63 -25 113t-73 78t-113 28h-101v-445h91zM136 -64h334v-98h-334v98z" />
    <glyph glyph-name="uni1E0F" unicode="&#x1e0f;" horiz-adv-x="665" 
d="M154.5 16.5q-57.5 31.5 -90 89t-32.5 133.5q0 75 32 133t90 90.5t132 32.5q54 0 99 -15t76 -43v302h151v-739h-146v52q-37 -35 -80.5 -51t-99.5 -16q-74 0 -131.5 31.5zM408.5 127q36.5 25 52.5 67v91q-14 41 -51.5 66.5t-84.5 25.5q-61 0 -99.5 -38t-38.5 -100
t38.5 -99.5t99.5 -37.5q47 0 83.5 25zM184 -64h334v-98h-334v98z" />
    <glyph glyph-name="uni1E20" unicode="&#x1e20;" horiz-adv-x="704" 
d="M245 850h334v-98h-334v98zM212 29.5q-86 44.5 -133 126.5t-47 193t47 193.5t133 127t198 44.5q76 0 134.5 -15.5t107.5 -48.5v-145q-44 36 -100.5 52.5t-128.5 16.5q-67 0 -120.5 -27.5t-84.5 -78.5t-31 -119q0 -69 28.5 -120.5t80.5 -79.5t120 -28q62 0 108 22v135h-113
v112h260v-337q-99 -68 -261 -68q-112 0 -198 44.5z" />
    <glyph glyph-name="uni1E21" unicode="&#x1e21;" horiz-adv-x="665" 
d="M174 643h334v-98h-334v98zM213.5 -221q-48.5 9 -81.5 24v111q77 -34 178 -34q81 0 116 33t35 99v30q-31 -28 -76 -42.5t-96 -14.5q-74 0 -132.5 32.5t-91.5 90.5t-33 132q0 76 32.5 134t90 89.5t131.5 31.5q56 0 99 -16t81 -51v52h146v-449q0 -125 -74 -193t-228 -68
q-48 0 -96.5 9zM409.5 127.5q37.5 25.5 51.5 67.5v90q-16 42 -52.5 67t-83.5 25q-61 0 -99.5 -37t-38.5 -99q0 -63 38.5 -101t99.5 -38q47 0 84.5 25.5z" />
    <glyph glyph-name="uni1E24" unicode="&#x1e24;" horiz-adv-x="713" 
d="M52 699h152v-280h305v280h152v-699h-152v293h-305v-293h-152v699zM305.5 -169q-21.5 21 -21.5 51t21.5 51t51.5 21q29 0 50 -21t21 -51t-21 -51t-50 -21q-30 0 -51.5 21z" />
    <glyph glyph-name="uni1E25" unicode="&#x1e25;" horiz-adv-x="615" 
d="M52 739h151v-314q34 35 77 52.5t92 17.5q98 0 146.5 -52.5t48.5 -141.5v-301h-151v284q0 93 -86 93q-38 0 -71 -18.5t-56 -54.5v-304h-151v739zM262.5 -169q-21.5 21 -21.5 51t21.5 51t51.5 21q29 0 50 -21t21 -51t-21 -51t-50 -21q-30 0 -51.5 21z" />
    <glyph glyph-name="uni1E2A" unicode="&#x1e2a;" horiz-adv-x="713" 
d="M52 699h152v-280h305v280h152v-699h-152v293h-305v-293h-152v699zM229.5 -175q-45.5 44 -45.5 118h113q0 -31 15 -47.5t44 -16.5q28 0 43.5 16.5t15.5 47.5h113q0 -74 -45.5 -118t-126.5 -44t-126.5 44z" />
    <glyph glyph-name="uni1E2B" unicode="&#x1e2b;" horiz-adv-x="615" 
d="M52 739h151v-314q34 35 77 52.5t92 17.5q98 0 146.5 -52.5t48.5 -141.5v-301h-151v284q0 93 -86 93q-38 0 -71 -18.5t-56 -54.5v-304h-151v739zM193.5 -175q-45.5 44 -45.5 118h113q0 -31 15 -47.5t44 -16.5q28 0 43.5 16.5t15.5 47.5h113q0 -74 -45.5 -118t-126.5 -44
t-126.5 44z" />
    <glyph glyph-name="uni1E36" unicode="&#x1e36;" horiz-adv-x="537" 
d="M52 699h152v-572h320v-127h-472v699zM218.5 -169q-21.5 21 -21.5 51t21.5 51t51.5 21q29 0 50 -21t21 -51t-21 -51t-50 -21q-30 0 -51.5 21z" />
    <glyph glyph-name="uni1E37" unicode="&#x1e37;" horiz-adv-x="256" 
d="M52 739h151v-739h-151v739zM77.5 -169q-21.5 21 -21.5 51t21.5 51t51.5 21q29 0 50 -21t21 -51t-21 -51t-50 -21q-30 0 -51.5 21z" />
    <glyph glyph-name="uni1E38" unicode="&#x1e38;" horiz-adv-x="536" 
d="M37 850h334v-98h-334v98zM51 699h152v-572h320v-127h-472v699zM235.5 -169q-21.5 21 -21.5 51t21.5 51t51.5 21q29 0 50 -21t21 -51t-21 -51t-50 -21q-30 0 -51.5 21z" />
    <glyph glyph-name="uni1E39" unicode="&#x1e39;" horiz-adv-x="256" 
d="M-40 867h334v-98h-334v98zM52 739h151v-739h-151v739zM77.5 -169q-21.5 21 -21.5 51t21.5 51t51.5 21q29 0 50 -21t21 -51t-21 -51t-50 -21q-30 0 -51.5 21z" />
    <glyph glyph-name="uni1E3A" unicode="&#x1e3a;" horiz-adv-x="537" 
d="M52 699h152v-572h320v-127h-472v699zM118 -64h334v-98h-334v98z" />
    <glyph glyph-name="uni1E3B" unicode="&#x1e3b;" horiz-adv-x="256" 
d="M52 739h151v-739h-151v739zM-39 -64h334v-98h-334v98z" />
    <glyph glyph-name="uni1E42" unicode="&#x1e42;" horiz-adv-x="835" 
d="M52 699h150l215 -468l216 468h149v-699h-145v397l-185 -397h-70l-184 397v-397h-146v699zM366.5 -169q-21.5 21 -21.5 51t21.5 51t51.5 21q29 0 50 -21t21 -51t-21 -51t-50 -21q-30 0 -51.5 21z" />
    <glyph glyph-name="uni1E43" unicode="&#x1e43;" horiz-adv-x="873" 
d="M52 480h141v-58q31 35 72 54t85 19q55 0 88 -17.5t52 -51.5q31 33 75.5 51t88.5 18q92 0 131.5 -47t39.5 -136v-312h-144v291q0 46 -18 66t-58 20q-56 0 -90 -44q2 -32 2 -52v-281h-145v296q0 44 -15.5 62.5t-53.5 18.5q-59 0 -105 -67v-310h-146v480zM393.5 -169
q-21.5 21 -21.5 51t21.5 51t51.5 21q29 0 50 -21t21 -51t-21 -51t-50 -21q-30 0 -51.5 21z" />
    <glyph glyph-name="uni1E44" unicode="&#x1e44;" horiz-adv-x="696" 
d="M305.5 772.5q-21.5 20.5 -21.5 50.5t21.5 51t51.5 21q29 0 50 -21t21 -51t-21 -50.5t-50 -20.5q-30 0 -51.5 20.5zM52 699h148l292 -452v452h152v-699h-147l-293 452v-452h-152v699z" />
    <glyph glyph-name="uni1E45" unicode="&#x1e45;" horiz-adv-x="615" 
d="M260.5 565.5q-21.5 20.5 -21.5 50.5t21.5 51t51.5 21q29 0 50 -21t21 -51t-21 -50.5t-50 -20.5q-30 0 -51.5 20.5zM52 480h146v-59q33 37 78.5 55.5t95.5 18.5q98 0 146.5 -52.5t48.5 -141.5v-301h-151v284q0 93 -86 93q-38 0 -71 -18.5t-56 -54.5v-304h-151v480z" />
    <glyph glyph-name="uni1E46" unicode="&#x1e46;" horiz-adv-x="696" 
d="M52 699h148l292 -452v452h152v-699h-147l-293 452v-452h-152v699zM304.5 -169q-21.5 21 -21.5 51t21.5 51t51.5 21q29 0 50 -21t21 -51t-21 -51t-50 -21q-30 0 -51.5 21z" />
    <glyph glyph-name="uni1E47" unicode="&#x1e47;" horiz-adv-x="615" 
d="M52 480h146v-59q33 37 78.5 55.5t95.5 18.5q98 0 146.5 -52.5t48.5 -141.5v-301h-151v284q0 93 -86 93q-38 0 -71 -18.5t-56 -54.5v-304h-151v480zM265.5 -169q-21.5 21 -21.5 51t21.5 51t51.5 21q29 0 50 -21t21 -51t-21 -51t-50 -21q-30 0 -51.5 21z" />
    <glyph glyph-name="uni1E48" unicode="&#x1e48;" horiz-adv-x="696" 
d="M52 699h148l292 -452v452h152v-699h-147l-293 452v-452h-152v699zM192 -64h334v-98h-334v98z" />
    <glyph glyph-name="uni1E49" unicode="&#x1e49;" horiz-adv-x="615" 
d="M52 480h146v-59q33 37 78.5 55.5t95.5 18.5q98 0 146.5 -52.5t48.5 -141.5v-301h-151v284q0 93 -86 93q-38 0 -71 -18.5t-56 -54.5v-304h-151v480zM160 -64h334v-98h-334v98z" />
    <glyph glyph-name="uni1E5A" unicode="&#x1e5a;" horiz-adv-x="640" 
d="M52 699h303q119 0 185.5 -59.5t66.5 -171.5q0 -78 -36 -132.5t-102 -79.5l133 -256h-156l-123 237h-119v-237h-152v699zM328 364q58 0 91.5 25t33.5 79q0 57 -33 80.5t-92 23.5h-124v-208h124zM263.5 -169q-21.5 21 -21.5 51t21.5 51t51.5 21q29 0 50 -21t21 -51t-21 -51
t-50 -21q-30 0 -51.5 21z" />
    <glyph glyph-name="uni1E5B" unicode="&#x1e5b;" horiz-adv-x="409" 
d="M52 480h146v-69q29 35 81 53.5t118 18.5v-115q-69 0 -121.5 -21t-72.5 -64v-283h-151v480zM75.5 -169q-21.5 21 -21.5 51t21.5 51t51.5 21q29 0 50 -21t21 -51t-21 -51t-50 -21q-30 0 -51.5 21z" />
    <glyph glyph-name="uni1E5C" unicode="&#x1e5c;" horiz-adv-x="640" 
d="M128 850h334v-98h-334v98zM52 699h303q119 0 185.5 -59.5t66.5 -171.5q0 -78 -36 -132.5t-102 -79.5l133 -256h-156l-123 237h-119v-237h-152v699zM328 364q58 0 91.5 25t33.5 79q0 57 -33 80.5t-92 23.5h-124v-208h124zM244.5 -169q-21.5 21 -21.5 51t21.5 51t51.5 21
q29 0 50 -21t21 -51t-21 -51t-50 -21q-30 0 -51.5 21z" />
    <glyph glyph-name="uni1E5D" unicode="&#x1e5d;" horiz-adv-x="423" 
d="M59 643h334v-98h-334v98zM65 480h146v-69q29 35 81 53.5t118 18.5v-115q-69 0 -121.5 -21t-72.5 -64v-283h-151v480zM91.5 -169q-21.5 21 -21.5 51t21.5 51t51.5 21q29 0 50 -21t21 -51t-21 -51t-50 -21q-30 0 -51.5 21z" />
    <glyph glyph-name="uni1E5E" unicode="&#x1e5e;" horiz-adv-x="640" 
d="M52 699h303q119 0 185.5 -59.5t66.5 -171.5q0 -78 -36 -132.5t-102 -79.5l133 -256h-156l-123 237h-119v-237h-152v699zM328 364q58 0 91.5 25t33.5 79q0 57 -33 80.5t-92 23.5h-124v-208h124zM146 -64h334v-98h-334v98z" />
    <glyph glyph-name="uni1E5F" unicode="&#x1e5f;" horiz-adv-x="414" 
d="M56 480h146v-69q29 35 81 53.5t118 18.5v-115q-69 0 -121.5 -21t-72.5 -64v-283h-151v480zM30 -64h334v-98h-334v98z" />
    <glyph glyph-name="uni1E60" unicode="&#x1e60;" horiz-adv-x="568" 
d="M243.5 772.5q-21.5 20.5 -21.5 50.5t21.5 51t51.5 21q29 0 50 -21t21 -51t-21 -50.5t-50 -20.5q-30 0 -51.5 20.5zM135 -3q-63 12 -103 32v134q53 -26 110 -39t109 -13q58 0 88 20t30 56q0 26 -15 44t-43.5 32.5t-87.5 38.5q-98 40 -142 89.5t-44 122.5q0 59 32 104.5
t90 70.5t134 25q62 0 110 -10t94 -31v-130q-88 44 -176 44q-56 0 -88 -19.5t-32 -55.5q0 -26 15 -43t42 -30t88 -38q71 -30 111 -57.5t59 -65t19 -92.5q0 -95 -68.5 -148t-204.5 -53q-64 0 -127 12z" />
    <glyph glyph-name="uni1E61" unicode="&#x1e61;" horiz-adv-x="504" 
d="M202.5 565.5q-21.5 20.5 -21.5 50.5t21.5 51t51.5 21q29 0 50 -21t21 -51t-21 -50.5t-50 -20.5q-30 0 -51.5 20.5zM133.5 -3.5q-61.5 11.5 -96.5 32.5v118q40 -24 96 -39t104 -15q41 0 60 7t19 26q0 15 -11 24.5t-33.5 17t-74.5 22.5q-61 18 -95.5 36.5t-52 46.5
t-17.5 72q0 75 59.5 112.5t161.5 37.5q50 0 103.5 -10.5t82.5 -27.5v-115q-29 19 -75.5 31t-90.5 12q-41 0 -63.5 -8t-22.5 -30q0 -19 21.5 -29t80.5 -25l20 -5q63 -17 98 -37.5t49.5 -49t14.5 -71.5q0 -66 -57 -105.5t-165 -39.5q-54 0 -115.5 11.5z" />
    <glyph glyph-name="uni1E62" unicode="&#x1e62;" horiz-adv-x="568" 
d="M135 -3q-63 12 -103 32v134q53 -26 110 -39t109 -13q58 0 88 20t30 56q0 26 -15 44t-43.5 32.5t-87.5 38.5q-98 40 -142 89.5t-44 122.5q0 59 32 104.5t90 70.5t134 25q62 0 110 -10t94 -31v-130q-88 44 -176 44q-56 0 -88 -19.5t-32 -55.5q0 -26 15 -43t42 -30t88 -38
q71 -30 111 -57.5t59 -65t19 -92.5q0 -95 -68.5 -148t-204.5 -53q-64 0 -127 12zM225.5 -169q-21.5 21 -21.5 51t21.5 51t51.5 21q29 0 50 -21t21 -51t-21 -51t-50 -21q-30 0 -51.5 21z" />
    <glyph glyph-name="uni1E63" unicode="&#x1e63;" horiz-adv-x="504" 
d="M133.5 -3.5q-61.5 11.5 -96.5 32.5v118q40 -24 96 -39t104 -15q41 0 60 7t19 26q0 15 -11 24.5t-33.5 17t-74.5 22.5q-61 18 -95.5 36.5t-52 46.5t-17.5 72q0 75 59.5 112.5t161.5 37.5q50 0 103.5 -10.5t82.5 -27.5v-115q-29 19 -75.5 31t-90.5 12q-41 0 -63.5 -8
t-22.5 -30q0 -19 21.5 -29t80.5 -25l20 -5q63 -17 98 -37.5t49.5 -49t14.5 -71.5q0 -66 -57 -105.5t-165 -39.5q-54 0 -115.5 11.5zM203.5 -169q-21.5 21 -21.5 51t21.5 51t51.5 21q29 0 50 -21t21 -51t-21 -51t-50 -21q-30 0 -51.5 21z" />
    <glyph glyph-name="uni1E6C" unicode="&#x1e6c;" horiz-adv-x="590" 
d="M219 572h-204v127h560v-127h-204v-572h-152v572zM244.5 -169q-21.5 21 -21.5 51t21.5 51t51.5 21q29 0 50 -21t21 -51t-21 -51t-50 -21q-30 0 -51.5 21z" />
    <glyph glyph-name="uni1E6D" unicode="&#x1e6d;" horiz-adv-x="387" 
d="M125.5 31.5q-43.5 46.5 -43.5 129.5v210h-70v109h70v144h151v-144h113v-109h-113v-190q0 -42 16 -60.5t57 -18.5q33 0 63 16v-113q-46 -20 -116 -20q-84 0 -127.5 46.5zM185.5 -169q-21.5 21 -21.5 51t21.5 51t51.5 21q29 0 50 -21t21 -51t-21 -51t-50 -21
q-30 0 -51.5 21z" />
    <glyph glyph-name="uni1E6E" unicode="&#x1e6e;" horiz-adv-x="590" 
d="M219 572h-204v127h560v-127h-204v-572h-152v572zM128 -64h334v-98h-334v98z" />
    <glyph glyph-name="uni1E6F" unicode="&#x1e6f;" horiz-adv-x="395" 
d="M130.5 31.5q-43.5 46.5 -43.5 129.5v210h-70v109h70v144h151v-144h113v-109h-113v-190q0 -42 16 -60.5t57 -18.5q33 0 63 16v-113q-46 -20 -116 -20q-84 0 -127.5 46.5zM43 -64h334v-98h-334v98z" />
    <glyph glyph-name="Wgrave" unicode="&#x1e80;" horiz-adv-x="999" 
d="M340 918h159l69 -176h-140zM35 699h160l125 -452l123 452h117l119 -452l125 452h159l-196 -699h-143l-125 443l-124 -443h-144z" />
    <glyph glyph-name="wgrave" unicode="&#x1e81;" horiz-adv-x="841" 
d="M264 711h159l69 -176h-140zM32 480h151l88 -300l86 300h126l87 -300l87 300h151l-159 -480h-137l-92 298l-92 -298h-137z" />
    <glyph glyph-name="Wacute" unicode="&#x1e82;" horiz-adv-x="999" 
d="M505 918h159l-89 -176h-139zM35 699h160l125 -452l123 452h117l119 -452l125 452h159l-196 -699h-143l-125 443l-124 -443h-144z" />
    <glyph glyph-name="wacute" unicode="&#x1e83;" horiz-adv-x="841" 
d="M424 711h159l-89 -176h-139zM32 480h151l88 -300l86 300h126l87 -300l87 300h151l-159 -480h-137l-92 298l-92 -298h-137z" />
    <glyph glyph-name="Wdieresis" unicode="&#x1e84;" horiz-adv-x="999" 
d="M330 772.5q-21 20.5 -21 50.5t21.5 51t50.5 21t50 -21t21 -51t-21 -50.5t-50 -20.5q-30 0 -51 20.5zM566.5 772.5q-21.5 20.5 -21.5 50.5t21.5 51t51.5 21q29 0 50 -21t21 -51t-21 -50.5t-50 -20.5q-30 0 -51.5 20.5zM35 699h160l125 -452l123 452h117l119 -452l125 452
h159l-196 -699h-143l-125 443l-124 -443h-144z" />
    <glyph glyph-name="wdieresis" unicode="&#x1e85;" horiz-adv-x="841" 
d="M251 565.5q-21 20.5 -21 50.5t21.5 51t50.5 21t50 -21t21 -51t-21 -50.5t-50 -20.5q-30 0 -51 20.5zM487.5 565.5q-21.5 20.5 -21.5 50.5t21.5 51t51.5 21q29 0 50 -21t21 -51t-21 -50.5t-50 -20.5q-30 0 -51.5 20.5zM32 480h151l88 -300l86 300h126l87 -300l87 300h151
l-159 -480h-137l-92 298l-92 -298h-137z" />
    <glyph glyph-name="uni1E8E" unicode="&#x1e8e;" horiz-adv-x="738" 
d="M315.5 772.5q-21.5 20.5 -21.5 50.5t21.5 51t51.5 21q29 0 50 -21t21 -51t-21 -50.5t-50 -20.5q-30 0 -51.5 20.5zM291 266l-256 433h162l169 -291l175 291h161l-262 -433v-266h-149v266z" />
    <glyph glyph-name="uni1E8F" unicode="&#x1e8f;" horiz-adv-x="612" 
d="M275.5 565.5q-21.5 20.5 -21.5 50.5t21.5 51t51.5 21q29 0 50 -21t21 -51t-21 -50.5t-50 -20.5q-30 0 -51.5 20.5zM122.5 -194q-31.5 4 -47.5 11v113q29 -11 64 -11q36 0 54.5 16t30.5 50l16 41l-208 454h152l136 -331l129 331h151l-204 -513q-34 -85 -84 -125t-128 -40
q-30 0 -61.5 4z" />
    <glyph glyph-name="uni1E92" unicode="&#x1e92;" horiz-adv-x="615" 
d="M32 101l342 471h-333v127h521v-102l-340 -470h360v-127h-550v101zM263.5 -169q-21.5 21 -21.5 51t21.5 51t51.5 21q29 0 50 -21t21 -51t-21 -51t-50 -21q-30 0 -51.5 21z" />
    <glyph glyph-name="uni1E93" unicode="&#x1e93;" horiz-adv-x="509" 
d="M32 87l242 284h-235v109h430v-88l-240 -283h248v-109h-445v87zM204.5 -169q-21.5 21 -21.5 51t21.5 51t51.5 21q29 0 50 -21t21 -51t-21 -51t-50 -21q-30 0 -51.5 21z" />
    <glyph glyph-name="uni1E97" unicode="&#x1e97;" horiz-adv-x="393" 
d="M-2 681.5q-21 20.5 -21 50.5t21.5 51t50.5 21t50 -21t21 -51t-21 -50.5t-50 -20.5q-30 0 -51 20.5zM234.5 681.5q-21.5 20.5 -21.5 50.5t21.5 51t51.5 21q29 0 50 -21t21 -51t-21 -50.5t-50 -20.5q-30 0 -51.5 20.5zM131.5 31.5q-43.5 46.5 -43.5 129.5v210h-70v109h70
v144h151v-144h113v-109h-113v-190q0 -42 16 -60.5t57 -18.5q33 0 63 16v-113q-46 -20 -116 -20q-84 0 -127.5 46.5z" />
    <glyph glyph-name="uni1E9E" unicode="&#x1e9e;" horiz-adv-x="645" 
d="M252 3v132q35 -21 91 -21q55 0 85.5 24t30.5 70q0 97 -127 97h-50v80l121 129q-6 30 -31.5 50t-65.5 20q-51 0 -79.5 -30t-28.5 -87v-467h-151v456q0 123 65.5 190.5t193.5 67.5q82 0 139 -29.5t87.5 -78.5t34.5 -109l-103 -109q77 -16 112.5 -64t35.5 -127
q0 -98 -60.5 -155t-171.5 -57q-84 0 -128 18z" />
    <glyph glyph-name="uni1EA0" unicode="&#x1ea0;" horiz-adv-x="772" 
d="M312 699h149l279 -699h-155l-60 152h-277l-60 -152h-156zM485 273l-99 266l-99 -266h198zM335.5 -169q-21.5 21 -21.5 51t21.5 51t51.5 21q29 0 50 -21t21 -51t-21 -51t-50 -21q-30 0 -51.5 21z" />
    <glyph glyph-name="uni1EA1" unicode="&#x1ea1;" horiz-adv-x="585" 
d="M87.5 29.5q-55.5 44.5 -55.5 121.5q0 80 53 124.5t150 44.5q43 0 82 -9t69 -25v12q0 45 -32 66t-98 21q-88 0 -162 -33v110q32 14 83 23.5t102 9.5q130 0 194 -53.5t64 -149.5v-292h-142v44q-61 -59 -164 -59q-88 0 -143.5 44.5zM339 99q30 14 47 39v48q-51 34 -112 34
q-42 0 -64.5 -17.5t-22.5 -51.5q0 -32 22 -49t63 -17q37 0 67 14zM248.5 -169q-21.5 21 -21.5 51t21.5 51t51.5 21q29 0 50 -21t21 -51t-21 -51t-50 -21q-30 0 -51.5 21z" />
    <glyph glyph-name="uni1EA2" unicode="&#x1ea2;" horiz-adv-x="772" 
d="M321 814q42 0 63.5 10t21.5 34q0 18 -14 26.5t-46 8.5q-13 0 -33 -3.5t-29 -7.5v75q20 6 50.5 10.5t58.5 4.5q73 0 111 -28t38 -75q0 -37 -23.5 -63t-65.5 -35v-29h-132v72zM312 699h149l279 -699h-155l-60 152h-277l-60 -152h-156zM485 273l-99 266l-99 -266h198z" />
    <glyph glyph-name="uni1EA3" unicode="&#x1ea3;" horiz-adv-x="585" 
d="M243 607q42 0 63.5 10t21.5 34q0 18 -14 26.5t-46 8.5q-13 0 -33 -3.5t-29 -7.5v75q20 6 50.5 10.5t58.5 4.5q73 0 111 -28t38 -75q0 -37 -23.5 -63t-65.5 -35v-29h-132v72zM87.5 29.5q-55.5 44.5 -55.5 121.5q0 80 53 124.5t150 44.5q43 0 82 -9t69 -25v12q0 45 -32 66
t-98 21q-88 0 -162 -33v110q32 14 83 23.5t102 9.5q130 0 194 -53.5t64 -149.5v-292h-142v44q-61 -59 -164 -59q-88 0 -143.5 44.5zM339 99q30 14 47 39v48q-51 34 -112 34q-42 0 -64.5 -17.5t-22.5 -51.5q0 -32 22 -49t63 -17q37 0 67 14z" />
    <glyph glyph-name="uni1EA4" unicode="&#x1ea4;" horiz-adv-x="771" 
d="M582 983h139l-79 -133h-120zM332 897h115l145 -155h-138l-65 76l-65 -76h-138zM312 699h149l279 -699h-155l-60 152h-277l-60 -152h-156zM485 273l-99 266l-99 -266h198z" />
    <glyph glyph-name="uni1EA5" unicode="&#x1ea5;" horiz-adv-x="578" 
d="M506 776h139l-79 -133h-120zM256 690h115l145 -155h-138l-65 76l-65 -76h-138zM87.5 29.5q-55.5 44.5 -55.5 121.5q0 80 53 124.5t150 44.5q43 0 82 -9t69 -25v12q0 45 -32 66t-98 21q-88 0 -162 -33v110q32 14 83 23.5t102 9.5q130 0 194 -53.5t64 -149.5v-292h-142v44
q-61 -59 -164 -59q-88 0 -143.5 44.5zM339 99q30 14 47 39v48q-51 34 -112 34q-42 0 -64.5 -17.5t-22.5 -51.5q0 -32 22 -49t63 -17q37 0 67 14z" />
    <glyph glyph-name="uni1EA6" unicode="&#x1ea6;" horiz-adv-x="769" 
d="M53 983h140l60 -133h-121zM328 897h115l145 -155h-138l-65 76l-65 -76h-137zM308 699h149l279 -699h-155l-60 152h-277l-60 -152h-156zM481 273l-99 266l-99 -266h198z" />
    <glyph glyph-name="uni1EA7" unicode="&#x1ea7;" horiz-adv-x="563" 
d="M-46 776h140l60 -133h-121zM229 690h115l145 -155h-138l-65 76l-65 -76h-137zM65.5 29.5q-55.5 44.5 -55.5 121.5q0 80 53 124.5t150 44.5q43 0 82 -9t69 -25v12q0 45 -32 66t-98 21q-88 0 -162 -33v110q32 14 83 23.5t102 9.5q130 0 194 -53.5t64 -149.5v-292h-142v44
q-61 -59 -164 -59q-88 0 -143.5 44.5zM317 99q30 14 47 39v48q-51 34 -112 34q-42 0 -64.5 -17.5t-22.5 -51.5q0 -32 22 -49t63 -17q37 0 67 14z" />
    <glyph glyph-name="uni1EA8" unicode="&#x1ea8;" horiz-adv-x="772" 
d="M519 889q28 0 41.5 6.5t13.5 22.5q0 13 -10 18.5t-31 5.5q-23 0 -39 -7v54q15 5 37.5 8t41.5 3q48 0 75 -19.5t27 -52.5q0 -25 -16.5 -42t-45.5 -23v-24h-94v50zM328 897h115l145 -155h-138l-65 76l-65 -76h-138zM312 699h149l279 -699h-155l-60 152h-277l-60 -152h-156z
M485 273l-99 266l-99 -266h198z" />
    <glyph glyph-name="uni1EA9" unicode="&#x1ea9;" horiz-adv-x="592" 
d="M436 682q28 0 41.5 6.5t13.5 22.5q0 13 -10 18.5t-31 5.5q-23 0 -39 -7v54q15 5 37.5 8t41.5 3q48 0 75 -19.5t27 -52.5q0 -25 -16.5 -42t-45.5 -23v-24h-94v50zM245 690h115l145 -155h-138l-65 76l-65 -76h-138zM87.5 29.5q-55.5 44.5 -55.5 121.5q0 80 53 124.5
t150 44.5q43 0 82 -9t69 -25v12q0 45 -32 66t-98 21q-88 0 -162 -33v110q32 14 83 23.5t102 9.5q130 0 194 -53.5t64 -149.5v-292h-142v44q-61 -59 -164 -59q-88 0 -143.5 44.5zM339 99q30 14 47 39v48q-51 34 -112 34q-42 0 -64.5 -17.5t-22.5 -51.5q0 -32 22 -49t63 -17
q37 0 67 14z" />
    <glyph glyph-name="uni1EAA" unicode="&#x1eaa;" horiz-adv-x="772" 
d="M386 931q-25 10 -41.5 15t-31.5 5q-48 0 -80 -42v95q25 35 80 35q17 0 35 -5.5t45 -16.5q5 -2 22 -8t30.5 -9.5t24.5 -3.5q49 0 80 42v-96q-25 -34 -80 -34q-32 0 -84 23zM329 897h115l145 -155h-138l-65 76l-65 -76h-138zM312 699h149l279 -699h-155l-60 152h-277
l-60 -152h-156zM485 273l-99 266l-99 -266h198z" />
    <glyph glyph-name="uni1EAB" unicode="&#x1eab;" horiz-adv-x="585" 
d="M307 724q-25 10 -41.5 15t-31.5 5q-48 0 -80 -42v95q25 35 80 35q17 0 35 -5.5t45 -16.5q5 -2 22 -8t30.5 -9.5t24.5 -3.5q49 0 80 42v-96q-25 -34 -80 -34q-32 0 -84 23zM250 690h115l145 -155h-138l-65 76l-65 -76h-138zM87.5 29.5q-55.5 44.5 -55.5 121.5
q0 80 53 124.5t150 44.5q43 0 82 -9t69 -25v12q0 45 -32 66t-98 21q-88 0 -162 -33v110q32 14 83 23.5t102 9.5q130 0 194 -53.5t64 -149.5v-292h-142v44q-61 -59 -164 -59q-88 0 -143.5 44.5zM339 99q30 14 47 39v48q-51 34 -112 34q-42 0 -64.5 -17.5t-22.5 -51.5
q0 -32 22 -49t63 -17q37 0 67 14z" />
    <glyph glyph-name="uni1EAC" unicode="&#x1eac;" horiz-adv-x="772" 
d="M319 918h135l151 -176h-150l-68 92l-68 -92h-151zM312 699h149l279 -699h-155l-60 152h-277l-60 -152h-156zM485 273l-99 266l-99 -266h198zM335.5 -169q-21.5 21 -21.5 51t21.5 51t51.5 21q29 0 50 -21t21 -51t-21 -51t-50 -21q-30 0 -51.5 21z" />
    <glyph glyph-name="uni1EAD" unicode="&#x1ead;" horiz-adv-x="585" 
d="M231 711h135l151 -176h-150l-68 92l-68 -92h-151zM87.5 29.5q-55.5 44.5 -55.5 121.5q0 80 53 124.5t150 44.5q43 0 82 -9t69 -25v12q0 45 -32 66t-98 21q-88 0 -162 -33v110q32 14 83 23.5t102 9.5q130 0 194 -53.5t64 -149.5v-292h-142v44q-61 -59 -164 -59
q-88 0 -143.5 44.5zM339 99q30 14 47 39v48q-51 34 -112 34q-42 0 -64.5 -17.5t-22.5 -51.5q0 -32 22 -49t63 -17q37 0 67 14zM245.5 -169q-21.5 21 -21.5 51t21.5 51t51.5 21q29 0 50 -21t21 -51t-21 -51t-50 -21q-30 0 -51.5 21z" />
    <glyph glyph-name="uni1EAE" unicode="&#x1eae;" horiz-adv-x="772" 
d="M384 1030h123l-69 -127h-105zM265.5 782q-44.5 40 -44.5 108h104q0 -59 61 -59q60 0 60 59h104q0 -68 -44 -108t-120 -40t-120.5 40zM312 699h149l279 -699h-155l-60 152h-277l-60 -152h-156zM485 273l-99 266l-99 -266h198z" />
    <glyph glyph-name="uni1EAF" unicode="&#x1eaf;" horiz-adv-x="585" 
d="M307 823h123l-69 -127h-105zM188.5 575q-44.5 40 -44.5 108h104q0 -59 61 -59q60 0 60 59h104q0 -68 -44 -108t-120 -40t-120.5 40zM87.5 29.5q-55.5 44.5 -55.5 121.5q0 80 53 124.5t150 44.5q43 0 82 -9t69 -25v12q0 45 -32 66t-98 21q-88 0 -162 -33v110
q32 14 83 23.5t102 9.5q130 0 194 -53.5t64 -149.5v-292h-142v44q-61 -59 -164 -59q-88 0 -143.5 44.5zM339 99q30 14 47 39v48q-51 34 -112 34q-42 0 -64.5 -17.5t-22.5 -51.5q0 -32 22 -49t63 -17q37 0 67 14z" />
    <glyph glyph-name="uni1EB0" unicode="&#x1eb0;" horiz-adv-x="772" 
d="M265 1030h122l51 -127h-105zM265.5 782q-44.5 40 -44.5 108h104q0 -59 61 -59t61 59h103q0 -68 -44 -108t-120 -40t-120.5 40zM312 699h149l279 -699h-155l-60 152h-277l-60 -152h-156zM485 273l-99 266l-99 -266h198z" />
    <glyph glyph-name="uni1EB1" unicode="&#x1eb1;" horiz-adv-x="585" 
d="M186 823h122l51 -127h-105zM186.5 575q-44.5 40 -44.5 108h104q0 -59 61 -59t61 59h103q0 -68 -44 -108t-120 -40t-120.5 40zM87.5 29.5q-55.5 44.5 -55.5 121.5q0 80 53 124.5t150 44.5q43 0 82 -9t69 -25v12q0 45 -32 66t-98 21q-88 0 -162 -33v110q32 14 83 23.5
t102 9.5q130 0 194 -53.5t64 -149.5v-292h-142v44q-61 -59 -164 -59q-88 0 -143.5 44.5zM339 99q30 14 47 39v48q-51 34 -112 34q-42 0 -64.5 -17.5t-22.5 -51.5q0 -32 22 -49t63 -17q37 0 67 14z" />
    <glyph glyph-name="uni1EB2" unicode="&#x1eb2;" horiz-adv-x="772" 
d="M342 941q28 0 41 6t13 22q0 14 -9.5 19.5t-31.5 5.5q-10 0 -21 -2t-17 -6v54q14 5 36.5 8.5t41.5 3.5q49 0 76 -19.5t27 -52.5q0 -26 -16 -43.5t-46 -23.5v-21h-94v49zM266 782q-44 40 -44 108h103q0 -30 15.5 -45t45.5 -15q62 0 62 60h103q0 -68 -44.5 -108t-120.5 -40
t-120 40zM312 699h149l279 -699h-155l-60 152h-277l-60 -152h-156zM485 273l-99 266l-99 -266h198z" />
    <glyph glyph-name="uni1EB3" unicode="&#x1eb3;" horiz-adv-x="585" 
d="M263 734q28 0 41 6t13 22q0 14 -9.5 19.5t-31.5 5.5q-10 0 -21 -2t-17 -6v54q14 5 36.5 8.5t41.5 3.5q49 0 76 -19.5t27 -52.5q0 -26 -16 -43.5t-46 -23.5v-21h-94v49zM187 575q-44 40 -44 108h103q0 -30 15.5 -45t45.5 -15q62 0 62 60h103q0 -68 -44.5 -108t-120.5 -40
t-120 40zM87.5 29.5q-55.5 44.5 -55.5 121.5q0 80 53 124.5t150 44.5q43 0 82 -9t69 -25v12q0 45 -32 66t-98 21q-88 0 -162 -33v110q32 14 83 23.5t102 9.5q130 0 194 -53.5t64 -149.5v-292h-142v44q-61 -59 -164 -59q-88 0 -143.5 44.5zM339 99q30 14 47 39v48
q-51 34 -112 34q-42 0 -64.5 -17.5t-22.5 -51.5q0 -32 22 -49t63 -17q37 0 67 14z" />
    <glyph glyph-name="uni1EB4" unicode="&#x1eb4;" horiz-adv-x="772" 
d="M428.5 928.5q-17.5 5.5 -48.5 17.5q-26 10 -41.5 15t-30.5 5q-24 0 -43.5 -10t-37.5 -32v95q25 35 81 35q17 0 35.5 -5.5t43.5 -16.5q5 -2 21.5 -8t30.5 -9.5t26 -3.5q48 0 80 42v-96q-25 -34 -80 -34q-19 0 -36.5 5.5zM265.5 782q-44.5 40 -44.5 108h104q0 -59 61 -59
t61 59h103q0 -68 -44 -108t-120 -40t-120.5 40zM312 699h149l279 -699h-155l-60 152h-277l-60 -152h-156zM485 273l-99 266l-99 -266h198z" />
    <glyph glyph-name="uni1EB5" unicode="&#x1eb5;" horiz-adv-x="585" 
d="M363.5 721.5q-17.5 5.5 -48.5 17.5q-26 10 -41.5 15t-30.5 5q-24 0 -43.5 -10t-37.5 -32v95q25 35 81 35q17 0 35.5 -5.5t43.5 -16.5q5 -2 21.5 -8t30.5 -9.5t26 -3.5q48 0 80 42v-96q-25 -34 -80 -34q-19 0 -36.5 5.5zM200.5 575q-44.5 40 -44.5 108h104q0 -59 61 -59
t61 59h103q0 -68 -44 -108t-120 -40t-120.5 40zM87.5 29.5q-55.5 44.5 -55.5 121.5q0 80 53 124.5t150 44.5q43 0 82 -9t69 -25v12q0 45 -32 66t-98 21q-88 0 -162 -33v110q32 14 83 23.5t102 9.5q130 0 194 -53.5t64 -149.5v-292h-142v44q-61 -59 -164 -59
q-88 0 -143.5 44.5zM339 99q30 14 47 39v48q-51 34 -112 34q-42 0 -64.5 -17.5t-22.5 -51.5q0 -32 22 -49t63 -17q37 0 67 14z" />
    <glyph glyph-name="uni1EB6" unicode="&#x1eb6;" horiz-adv-x="772" 
d="M259.5 786q-45.5 44 -45.5 118h113q0 -31 15 -47.5t44 -16.5q28 0 43.5 16.5t15.5 47.5h113q0 -74 -45.5 -118t-126.5 -44t-126.5 44zM312 699h149l279 -699h-155l-60 152h-277l-60 -152h-156zM485 273l-99 266l-99 -266h198zM335.5 -169q-21.5 21 -21.5 51t21.5 51
t51.5 21q29 0 50 -21t21 -51t-21 -51t-50 -21q-30 0 -51.5 21z" />
    <glyph glyph-name="uni1EB7" unicode="&#x1eb7;" horiz-adv-x="585" 
d="M177.5 579q-45.5 44 -45.5 118h113q0 -31 15 -47.5t44 -16.5q28 0 43.5 16.5t15.5 47.5h113q0 -74 -45.5 -118t-126.5 -44t-126.5 44zM87.5 29.5q-55.5 44.5 -55.5 121.5q0 80 53 124.5t150 44.5q43 0 82 -9t69 -25v12q0 45 -32 66t-98 21q-88 0 -162 -33v110
q32 14 83 23.5t102 9.5q130 0 194 -53.5t64 -149.5v-292h-142v44q-61 -59 -164 -59q-88 0 -143.5 44.5zM339 99q30 14 47 39v48q-51 34 -112 34q-42 0 -64.5 -17.5t-22.5 -51.5q0 -32 22 -49t63 -17q37 0 67 14zM248.5 -169q-21.5 21 -21.5 51t21.5 51t51.5 21q29 0 50 -21
t21 -51t-21 -51t-50 -21q-30 0 -51.5 21z" />
    <glyph glyph-name="uni1EB8" unicode="&#x1eb8;" horiz-adv-x="569" 
d="M52 699h485v-127h-333v-162h245v-122h-245v-161h333v-127h-485v699zM242.5 -169q-21.5 21 -21.5 51t21.5 51t51.5 21q29 0 50 -21t21 -51t-21 -51t-50 -21q-30 0 -51.5 21z" />
    <glyph glyph-name="uni1EB9" unicode="&#x1eb9;" horiz-adv-x="604" 
d="M111 51.5q-79 66.5 -79 186.5q0 119 70.5 188t201.5 69q86 0 146 -32t91 -88.5t31 -127.5v-61h-396q16 -92 172 -92q46 0 95 8t85 22v-106q-35 -15 -90 -24t-110 -9q-138 0 -217 66.5zM429 284q-3 48 -36 74.5t-91 26.5q-57 0 -90 -27t-36 -74h253zM274.5 -169
q-21.5 21 -21.5 51t21.5 51t51.5 21q29 0 50 -21t21 -51t-21 -51t-50 -21q-30 0 -51.5 21z" />
    <glyph glyph-name="uni1EBA" unicode="&#x1eba;" horiz-adv-x="569" 
d="M223 814q42 0 63.5 10t21.5 34q0 18 -14 26.5t-46 8.5q-13 0 -33 -3.5t-29 -7.5v75q20 6 50.5 10.5t58.5 4.5q73 0 111 -28t38 -75q0 -37 -23.5 -63t-65.5 -35v-29h-132v72zM52 699h485v-127h-333v-162h245v-122h-245v-161h333v-127h-485v699z" />
    <glyph glyph-name="uni1EBB" unicode="&#x1ebb;" horiz-adv-x="604" 
d="M244 607q42 0 63.5 10t21.5 34q0 18 -14 26.5t-46 8.5q-13 0 -33 -3.5t-29 -7.5v75q20 6 50.5 10.5t58.5 4.5q73 0 111 -28t38 -75q0 -37 -23.5 -63t-65.5 -35v-29h-132v72zM111 51.5q-79 66.5 -79 186.5q0 119 70.5 188t201.5 69q86 0 146 -32t91 -88.5t31 -127.5v-61
h-396q16 -92 172 -92q46 0 95 8t85 22v-106q-35 -15 -90 -24t-110 -9q-138 0 -217 66.5zM429 284q-3 48 -36 74.5t-91 26.5q-57 0 -90 -27t-36 -74h253z" />
    <glyph glyph-name="uni1EBC" unicode="&#x1ebc;" horiz-adv-x="569" 
d="M102 857q33 43 103 43q22 0 43.5 -6t55.5 -19q29 -12 50.5 -18.5t43.5 -6.5q63 0 102 50v-115q-33 -42 -102 -42q-25 0 -48.5 6.5t-54.5 19.5q-31 12 -50 18t-40 6q-61 0 -103 -51v115zM52 699h485v-127h-333v-162h245v-122h-245v-161h333v-127h-485v699z" />
    <glyph glyph-name="uni1EBD" unicode="&#x1ebd;" horiz-adv-x="604" 
d="M122 650q33 43 103 43q22 0 43.5 -6t55.5 -19q29 -12 50.5 -18.5t43.5 -6.5q63 0 102 50v-115q-33 -42 -102 -42q-25 0 -48.5 6.5t-54.5 19.5q-31 12 -50 18t-40 6q-61 0 -103 -51v115zM111 51.5q-79 66.5 -79 186.5q0 119 70.5 188t201.5 69q86 0 146 -32t91 -88.5
t31 -127.5v-61h-396q16 -92 172 -92q46 0 95 8t85 22v-106q-35 -15 -90 -24t-110 -9q-138 0 -217 66.5zM429 284q-3 48 -36 74.5t-91 26.5q-57 0 -90 -27t-36 -74h253z" />
    <glyph glyph-name="uni1EBE" unicode="&#x1ebe;" horiz-adv-x="538" 
d="M480 983h139l-79 -133h-120zM230 897h115l145 -155h-138l-65 76l-65 -76h-138zM52 699h485v-127h-333v-162h245v-122h-245v-161h333v-127h-485v699z" />
    <glyph glyph-name="uni1EBF" unicode="&#x1ebf;" horiz-adv-x="589" 
d="M507 776h139l-79 -133h-120zM257 690h115l145 -155h-138l-65 76l-65 -76h-138zM111 51.5q-79 66.5 -79 186.5q0 119 70.5 188t201.5 69q86 0 146 -32t91 -88.5t31 -127.5v-61h-396q16 -92 172 -92q46 0 95 8t85 22v-106q-35 -15 -90 -24t-110 -9q-138 0 -217 66.5z
M429 284q-3 48 -36 74.5t-91 26.5q-57 0 -90 -27t-36 -74h253z" />
    <glyph glyph-name="uni1EC0" unicode="&#x1ec0;" horiz-adv-x="531" 
d="M-57 983h140l60 -133h-121zM218 897h115l145 -155h-138l-65 76l-65 -76h-137zM24 699h485v-127h-333v-162h245v-122h-245v-161h333v-127h-485v699z" />
    <glyph glyph-name="uni1EC1" unicode="&#x1ec1;" horiz-adv-x="574" 
d="M-44 776h140l60 -133h-121zM231 690h115l145 -155h-138l-65 76l-65 -76h-137zM81 51.5q-79 66.5 -79 186.5q0 119 70.5 188t201.5 69q86 0 146 -32t91 -88.5t31 -127.5v-61h-396q16 -92 172 -92q46 0 95 8t85 22v-106q-35 -15 -90 -24t-110 -9q-138 0 -217 66.5zM399 284
q-3 48 -36 74.5t-91 26.5q-57 0 -90 -27t-36 -74h253z" />
    <glyph glyph-name="uni1EC2" unicode="&#x1ec2;" horiz-adv-x="563" 
d="M431 889q28 0 41.5 6.5t13.5 22.5q0 13 -10 18.5t-31 5.5q-23 0 -39 -7v54q15 5 37.5 8t41.5 3q48 0 75 -19.5t27 -52.5q0 -25 -16.5 -42t-45.5 -23v-24h-94v50zM240 897h115l145 -155h-138l-65 76l-65 -76h-138zM52 699h485v-127h-333v-162h245v-122h-245v-161h333v-127
h-485v699z" />
    <glyph glyph-name="uni1EC3" unicode="&#x1ec3;" horiz-adv-x="612" 
d="M442 682q28 0 41.5 6.5t13.5 22.5q0 13 -10 18.5t-31 5.5q-23 0 -39 -7v54q15 5 37.5 8t41.5 3q48 0 75 -19.5t27 -52.5q0 -25 -16.5 -42t-45.5 -23v-24h-94v50zM251 690h115l145 -155h-138l-65 76l-65 -76h-138zM111 51.5q-79 66.5 -79 186.5q0 119 70.5 188t201.5 69
q86 0 146 -32t91 -88.5t31 -127.5v-61h-396q16 -92 172 -92q46 0 95 8t85 22v-106q-35 -15 -90 -24t-110 -9q-138 0 -217 66.5zM429 284q-3 48 -36 74.5t-91 26.5q-57 0 -90 -27t-36 -74h253z" />
    <glyph glyph-name="uni1EC4" unicode="&#x1ec4;" horiz-adv-x="564" 
d="M301 931q-25 10 -41.5 15t-31.5 5q-48 0 -80 -42v95q25 35 80 35q17 0 35 -5.5t45 -16.5q5 -2 22 -8t30.5 -9.5t24.5 -3.5q49 0 80 42v-96q-25 -34 -80 -34q-32 0 -84 23zM244 897h115l145 -155h-138l-65 76l-65 -76h-138zM52 699h485v-127h-333v-162h245v-122h-245v-161
h333v-127h-485v699z" />
    <glyph glyph-name="uni1EC5" unicode="&#x1ec5;" horiz-adv-x="604" 
d="M309 724q-25 10 -41.5 15t-31.5 5q-48 0 -80 -42v95q25 35 80 35q17 0 35 -5.5t45 -16.5q5 -2 22 -8t30.5 -9.5t24.5 -3.5q49 0 80 42v-96q-25 -34 -80 -34q-32 0 -84 23zM252 690h115l145 -155h-138l-65 76l-65 -76h-138zM111 51.5q-79 66.5 -79 186.5q0 119 70.5 188
t201.5 69q86 0 146 -32t91 -88.5t31 -127.5v-61h-396q16 -92 172 -92q46 0 95 8t85 22v-106q-35 -15 -90 -24t-110 -9q-138 0 -217 66.5zM429 284q-3 48 -36 74.5t-91 26.5q-57 0 -90 -27t-36 -74h253z" />
    <glyph glyph-name="uni1EC6" unicode="&#x1ec6;" horiz-adv-x="566" 
d="M231 918h135l151 -176h-150l-68 92l-68 -92h-151zM53 699h485v-127h-333v-162h245v-122h-245v-161h333v-127h-485v699zM248.5 -169q-21.5 21 -21.5 51t21.5 51t51.5 21q29 0 50 -21t21 -51t-21 -51t-50 -21q-30 0 -51.5 21z" />
    <glyph glyph-name="uni1EC7" unicode="&#x1ec7;" horiz-adv-x="611" 
d="M253 711h135l151 -176h-150l-68 92l-68 -92h-151zM118 51.5q-79 66.5 -79 186.5q0 119 70.5 188t201.5 69q86 0 146 -32t91 -88.5t31 -127.5v-61h-396q16 -92 172 -92q46 0 95 8t85 22v-106q-35 -15 -90 -24t-110 -9q-138 0 -217 66.5zM436 284q-3 48 -36 74.5t-91 26.5
q-57 0 -90 -27t-36 -74h253zM270.5 -169q-21.5 21 -21.5 51t21.5 51t51.5 21q29 0 50 -21t21 -51t-21 -51t-50 -21q-30 0 -51.5 21z" />
    <glyph glyph-name="uni1EC8" unicode="&#x1ec8;" horiz-adv-x="260" 
d="M63 814q42 0 63.5 10t21.5 34q0 18 -14 26.5t-46 8.5q-13 0 -33 -3.5t-29 -7.5v75q20 6 51 10.5t58 4.5q73 0 111 -28t38 -75q0 -37 -23.5 -63t-65.5 -35v-29h-132v72zM53 699h152v-699h-152v699z" />
    <glyph glyph-name="uni1EC9" unicode="&#x1ec9;" horiz-adv-x="257" 
d="M62 607q42 0 63.5 10t21.5 34q0 18 -14 26.5t-46 8.5q-13 0 -33 -3.5t-29 -7.5v75q20 6 50.5 10.5t58.5 4.5q73 0 111 -28t38 -75q0 -37 -23.5 -63t-65.5 -35v-29h-132v72zM52 480h152v-480h-152v480z" />
    <glyph glyph-name="uni1ECA" unicode="&#x1eca;" horiz-adv-x="260" 
d="M53 699h152v-699h-152v699zM78.5 -169q-21.5 21 -21.5 51t21.5 51t51.5 21q29 0 50 -21t21 -51t-21 -51t-50 -21q-30 0 -51.5 21z" />
    <glyph glyph-name="uni1ECB" unicode="&#x1ecb;" horiz-adv-x="270" 
d="M76 577q-24 23 -24 58q0 34 24 57.5t59 23.5t59 -23.5t24 -57.5q0 -35 -24 -58t-59 -23t-59 23zM59 480h152v-480h-152v480zM84.5 -169q-21.5 21 -21.5 51t21.5 51t51.5 21q29 0 50 -21t21 -51t-21 -51t-50 -21q-30 0 -51.5 21z" />
    <glyph glyph-name="uni1ECC" unicode="&#x1ecc;" horiz-adv-x="810" 
d="M215.5 31q-85.5 46 -134.5 128.5t-49 189.5t49 190t134.5 129t190.5 46t189.5 -46t133.5 -129t49 -190t-49 -189.5t-133.5 -128.5t-189.5 -46t-190.5 46zM515.5 152.5q49.5 27.5 78.5 78t29 118.5q0 67 -28.5 117.5t-78 78t-110.5 27.5q-62 0 -111.5 -27.5t-78.5 -78
t-29 -117.5q0 -68 29 -118.5t79 -78t111 -27.5q60 0 109.5 27.5zM354.5 -169q-21.5 21 -21.5 51t21.5 51t51.5 21q29 0 50 -21t21 -51t-21 -51t-50 -21q-30 0 -51.5 21z" />
    <glyph glyph-name="uni1ECD" unicode="&#x1ecd;" horiz-adv-x="642" 
d="M168.5 16.5q-65.5 31.5 -101 89t-35.5 134.5q0 75 35.5 133t101 90t152.5 32q86 0 151.5 -32t101 -90t35.5 -133q0 -77 -35.5 -134.5t-100.5 -89t-152 -31.5t-152.5 31.5zM418 140.5q36 37.5 36 99.5q0 64 -35.5 100.5t-97.5 36.5t-98 -36.5t-36 -100.5q0 -62 36.5 -99.5
t97.5 -37.5t97 37.5zM270.5 -169q-21.5 21 -21.5 51t21.5 51t51.5 21q29 0 50 -21t21 -51t-21 -51t-50 -21q-30 0 -51.5 21z" />
    <glyph glyph-name="uni1ECE" unicode="&#x1ece;" horiz-adv-x="810" 
d="M336 814q42 0 63.5 10t21.5 34q0 18 -14 26.5t-46 8.5q-13 0 -33 -3.5t-29 -7.5v75q20 6 51 10.5t58 4.5q73 0 111 -28t38 -75q0 -37 -23.5 -63t-65.5 -35v-29h-132v72zM215.5 31q-85.5 46 -134.5 128.5t-49 189.5t49 190t134.5 129t190.5 46t189.5 -46t133.5 -129
t49 -190t-49 -189.5t-133.5 -128.5t-189.5 -46t-190.5 46zM515.5 152.5q49.5 27.5 78.5 78t29 118.5q0 67 -28.5 117.5t-78 78t-110.5 27.5q-62 0 -111.5 -27.5t-78.5 -78t-29 -117.5q0 -68 29 -118.5t79 -78t111 -27.5q60 0 109.5 27.5z" />
    <glyph glyph-name="uni1ECF" unicode="&#x1ecf;" horiz-adv-x="642" 
d="M263 607q42 0 63.5 10t21.5 34q0 18 -14 26.5t-46 8.5q-13 0 -33 -3.5t-29 -7.5v75q20 6 51 10.5t58 4.5q73 0 111 -28t38 -75q0 -37 -23.5 -63t-65.5 -35v-29h-132v72zM168.5 16.5q-65.5 31.5 -101 89t-35.5 134.5q0 75 35.5 133t101 90t152.5 32q86 0 151.5 -32
t101 -90t35.5 -133q0 -77 -35.5 -134.5t-100.5 -89t-152 -31.5t-152.5 31.5zM418 140.5q36 37.5 36 99.5q0 64 -35.5 100.5t-97.5 36.5t-98 -36.5t-36 -100.5q0 -62 36.5 -99.5t97.5 -37.5t97 37.5z" />
    <glyph glyph-name="uni1ED0" unicode="&#x1ed0;" horiz-adv-x="799" 
d="M607 983h139l-79 -133h-120zM357 897h115l145 -155h-138l-65 76l-65 -76h-138zM215.5 31q-85.5 46 -134.5 128.5t-49 189.5t49 190t134.5 129t190.5 46t189.5 -46t133.5 -129t49 -190t-49 -189.5t-133.5 -128.5t-189.5 -46t-190.5 46zM515.5 152.5q49.5 27.5 78.5 78
t29 118.5q0 67 -28.5 117.5t-78 78t-110.5 27.5q-62 0 -111.5 -27.5t-78.5 -78t-29 -117.5q0 -68 29 -118.5t79 -78t111 -27.5q60 0 109.5 27.5z" />
    <glyph glyph-name="uni1ED1" unicode="&#x1ed1;" horiz-adv-x="629" 
d="M513 776h139l-79 -133h-120zM263 690h115l145 -155h-138l-65 76l-65 -76h-138zM168.5 16.5q-65.5 31.5 -101 89t-35.5 134.5q0 75 35.5 133t101 90t152.5 32q86 0 151.5 -32t101 -90t35.5 -133q0 -77 -35.5 -134.5t-100.5 -89t-152 -31.5t-152.5 31.5zM418 140.5
q36 37.5 36 99.5q0 64 -35.5 100.5t-97.5 36.5t-98 -36.5t-36 -100.5q0 -62 36.5 -99.5t97.5 -37.5t97 37.5z" />
    <glyph glyph-name="uni1ED2" unicode="&#x1ed2;" horiz-adv-x="799" 
d="M66 983h140l60 -133h-121zM341 897h115l145 -155h-138l-65 76l-65 -76h-137zM204.5 31q-85.5 46 -134.5 128.5t-49 189.5t49 190t134.5 129t190.5 46t189.5 -46t133.5 -129t49 -190t-49 -189.5t-133.5 -128.5t-189.5 -46t-190.5 46zM504.5 152.5q49.5 27.5 78.5 78
t29 118.5q0 67 -28.5 117.5t-78 78t-110.5 27.5q-62 0 -111.5 -27.5t-78.5 -78t-29 -117.5q0 -68 29 -118.5t79 -78t111 -27.5q60 0 109.5 27.5z" />
    <glyph glyph-name="uni1ED3" unicode="&#x1ed3;" horiz-adv-x="642" 
d="M-2 776h140l60 -133h-121zM273 690h115l145 -155h-138l-65 76l-65 -76h-137zM168.5 16.5q-65.5 31.5 -101 89t-35.5 134.5q0 75 35.5 133t101 90t152.5 32q86 0 151.5 -32t101 -90t35.5 -133q0 -77 -35.5 -134.5t-100.5 -89t-152 -31.5t-152.5 31.5zM418 140.5
q36 37.5 36 99.5q0 64 -35.5 100.5t-97.5 36.5t-98 -36.5t-36 -100.5q0 -62 36.5 -99.5t97.5 -37.5t97 37.5z" />
    <glyph glyph-name="uni1ED4" unicode="&#x1ed4;" horiz-adv-x="810" 
d="M546 889q28 0 41.5 6.5t13.5 22.5q0 13 -10 18.5t-31 5.5q-23 0 -39 -7v54q15 5 37.5 8t41.5 3q48 0 75 -19.5t27 -52.5q0 -25 -16.5 -42t-45.5 -23v-24h-94v50zM355 897h115l145 -155h-138l-65 76l-65 -76h-138zM215.5 31q-85.5 46 -134.5 128.5t-49 189.5t49 190
t134.5 129t190.5 46t189.5 -46t133.5 -129t49 -190t-49 -189.5t-133.5 -128.5t-189.5 -46t-190.5 46zM515.5 152.5q49.5 27.5 78.5 78t29 118.5q0 67 -28.5 117.5t-78 78t-110.5 27.5q-62 0 -111.5 -27.5t-78.5 -78t-29 -117.5q0 -68 29 -118.5t79 -78t111 -27.5
q60 0 109.5 27.5z" />
    <glyph glyph-name="uni1ED5" unicode="&#x1ed5;" horiz-adv-x="644" 
d="M461 682q28 0 41.5 6.5t13.5 22.5q0 13 -10 18.5t-31 5.5q-23 0 -39 -7v54q15 5 37.5 8t41.5 3q48 0 75 -19.5t27 -52.5q0 -25 -16.5 -42t-45.5 -23v-24h-94v50zM270 690h115l145 -155h-138l-65 76l-65 -76h-138zM168.5 16.5q-65.5 31.5 -101 89t-35.5 134.5
q0 75 35.5 133t101 90t152.5 32q86 0 151.5 -32t101 -90t35.5 -133q0 -77 -35.5 -134.5t-100.5 -89t-152 -31.5t-152.5 31.5zM418 140.5q36 37.5 36 99.5q0 64 -35.5 100.5t-97.5 36.5t-98 -36.5t-36 -100.5q0 -62 36.5 -99.5t97.5 -37.5t97 37.5z" />
    <glyph glyph-name="uni1ED6" unicode="&#x1ed6;" horiz-adv-x="810" 
d="M447.5 928.5q-17.5 5.5 -48.5 17.5q-26 10 -41.5 15t-30.5 5q-24 0 -43.5 -10t-37.5 -32v95q25 35 81 35q17 0 35.5 -5.5t43.5 -16.5q5 -2 21.5 -8t30.5 -9.5t26 -3.5q48 0 80 42v-96q-25 -34 -80 -34q-19 0 -36.5 5.5zM284.5 782q-44.5 40 -44.5 108h104q0 -59 61 -59
t61 59h103q0 -68 -44 -108t-120 -40t-120.5 40zM215.5 31q-85.5 46 -134.5 128.5t-49 189.5t49 190t134.5 129t190.5 46t189.5 -46t133.5 -129t49 -190t-49 -189.5t-133.5 -128.5t-189.5 -46t-190.5 46zM515.5 152.5q49.5 27.5 78.5 78t29 118.5q0 67 -28.5 117.5t-78 78
t-110.5 27.5q-62 0 -111.5 -27.5t-78.5 -78t-29 -117.5q0 -68 29 -118.5t79 -78t111 -27.5q60 0 109.5 27.5z" />
    <glyph glyph-name="uni1ED7" unicode="&#x1ed7;" horiz-adv-x="642" 
d="M363.5 721.5q-17.5 5.5 -48.5 17.5q-26 10 -41.5 15t-30.5 5q-24 0 -43.5 -10t-37.5 -32v95q25 35 81 35q17 0 35.5 -5.5t43.5 -16.5q5 -2 21.5 -8t30.5 -9.5t26 -3.5q48 0 80 42v-96q-25 -34 -80 -34q-19 0 -36.5 5.5zM200.5 575q-44.5 40 -44.5 108h104q0 -59 61 -59
t61 59h103q0 -68 -44 -108t-120 -40t-120.5 40zM168.5 16.5q-65.5 31.5 -101 89t-35.5 134.5q0 75 35.5 133t101 90t152.5 32q86 0 151.5 -32t101 -90t35.5 -133q0 -77 -35.5 -134.5t-100.5 -89t-152 -31.5t-152.5 31.5zM418 140.5q36 37.5 36 99.5q0 64 -35.5 100.5
t-97.5 36.5t-98 -36.5t-36 -100.5q0 -62 36.5 -99.5t97.5 -37.5t97 37.5z" />
    <glyph glyph-name="uni1ED8" unicode="&#x1ed8;" horiz-adv-x="810" 
d="M338 918h135l151 -176h-150l-68 92l-68 -92h-151zM215.5 31q-85.5 46 -134.5 128.5t-49 189.5t49 190t134.5 129t190.5 46t189.5 -46t133.5 -129t49 -190t-49 -189.5t-133.5 -128.5t-189.5 -46t-190.5 46zM515.5 152.5q49.5 27.5 78.5 78t29 118.5q0 67 -28.5 117.5
t-78 78t-110.5 27.5q-62 0 -111.5 -27.5t-78.5 -78t-29 -117.5q0 -68 29 -118.5t79 -78t111 -27.5q60 0 109.5 27.5zM355.5 -169q-21.5 21 -21.5 51t21.5 51t51.5 21q29 0 50 -21t21 -51t-21 -51t-50 -21q-30 0 -51.5 21z" />
    <glyph glyph-name="uni1ED9" unicode="&#x1ed9;" horiz-adv-x="644" 
d="M256 711h135l151 -176h-150l-68 92l-68 -92h-151zM170.5 16.5q-65.5 31.5 -101 89t-35.5 134.5q0 75 35.5 133t101 90t152.5 32q86 0 151.5 -32t101 -90t35.5 -133q0 -77 -35.5 -134.5t-100.5 -89t-152 -31.5t-152.5 31.5zM420 140.5q36 37.5 36 99.5q0 64 -35.5 100.5
t-97.5 36.5t-98 -36.5t-36 -100.5q0 -62 36.5 -99.5t97.5 -37.5t97 37.5zM272.5 -169q-21.5 21 -21.5 51t21.5 51t51.5 21q29 0 50 -21t21 -51t-21 -51t-50 -21q-30 0 -51.5 21z" />
    <glyph glyph-name="uni1EDA" unicode="&#x1eda;" horiz-adv-x="884" 
d="M412 918h159l-89 -176h-139zM215.5 31q-85.5 46 -134.5 128.5t-49 189.5t49 190t134.5 129t190.5 46q72 0 136 -22.5t114 -64.5q50 1 69 20t19 65v35h132v-44q0 -68 -36 -117.5t-101 -64.5q39 -78 39 -172q0 -107 -49 -189.5t-133.5 -128.5t-189.5 -46t-190.5 46z
M512.5 157.5q48.5 26.5 76.5 76t28 115.5q0 65 -28 114.5t-76 76t-107 26.5q-60 0 -108.5 -26.5t-76.5 -76t-28 -114.5q0 -66 28.5 -115.5t77 -76t107.5 -26.5q58 0 106.5 26.5z" />
    <glyph glyph-name="uni1EDB" unicode="&#x1edb;" horiz-adv-x="721" 
d="M314 711h159l-89 -176h-139zM168.5 16.5q-65.5 31.5 -101 89t-35.5 134.5q0 75 35.5 133t101 90t152.5 32q115 0 193 -57q42 4 60 25t18 60v35h122v-44q0 -62 -33 -108t-92 -63q20 -48 20 -103q0 -77 -35.5 -134.5t-100.5 -89t-152 -31.5t-152.5 31.5zM418 140.5
q36 37.5 36 99.5q0 64 -35.5 100.5t-97.5 36.5t-98 -36.5t-36 -100.5q0 -62 36.5 -99.5t97.5 -37.5t97 37.5z" />
    <glyph glyph-name="uni1EDC" unicode="&#x1edc;" horiz-adv-x="884" 
d="M245 918h159l69 -176h-140zM215.5 31q-85.5 46 -134.5 128.5t-49 189.5t49 190t134.5 129t190.5 46q72 0 136 -22.5t114 -64.5q50 1 69 20t19 65v35h132v-44q0 -68 -36 -117.5t-101 -64.5q39 -78 39 -172q0 -107 -49 -189.5t-133.5 -128.5t-189.5 -46t-190.5 46z
M512.5 157.5q48.5 26.5 76.5 76t28 115.5q0 65 -28 114.5t-76 76t-107 26.5q-60 0 -108.5 -26.5t-76.5 -76t-28 -114.5q0 -66 28.5 -115.5t77 -76t107.5 -26.5q58 0 106.5 26.5z" />
    <glyph glyph-name="uni1EDD" unicode="&#x1edd;" horiz-adv-x="721" 
d="M163 711h159l69 -176h-140zM168.5 16.5q-65.5 31.5 -101 89t-35.5 134.5q0 75 35.5 133t101 90t152.5 32q115 0 193 -57q42 4 60 25t18 60v35h122v-44q0 -62 -33 -108t-92 -63q20 -48 20 -103q0 -77 -35.5 -134.5t-100.5 -89t-152 -31.5t-152.5 31.5zM418 140.5
q36 37.5 36 99.5q0 64 -35.5 100.5t-97.5 36.5t-98 -36.5t-36 -100.5q0 -62 36.5 -99.5t97.5 -37.5t97 37.5z" />
    <glyph glyph-name="uni1EDE" unicode="&#x1ede;" horiz-adv-x="884" 
d="M343 814q42 0 63.5 10t21.5 34q0 18 -14 26.5t-46 8.5q-13 0 -33 -3.5t-29 -7.5v75q20 6 51 10.5t58 4.5q73 0 111 -28t38 -75q0 -37 -23.5 -63t-65.5 -35v-29h-132v72zM215.5 31q-85.5 46 -134.5 128.5t-49 189.5t49 190t134.5 129t190.5 46q72 0 136 -22.5t114 -64.5
q50 1 69 20t19 65v35h132v-44q0 -68 -36 -117.5t-101 -64.5q39 -78 39 -172q0 -107 -49 -189.5t-133.5 -128.5t-189.5 -46t-190.5 46zM512.5 157.5q48.5 26.5 76.5 76t28 115.5q0 65 -28 114.5t-76 76t-107 26.5q-60 0 -108.5 -26.5t-76.5 -76t-28 -114.5q0 -66 28.5 -115.5
t77 -76t107.5 -26.5q58 0 106.5 26.5z" />
    <glyph glyph-name="uni1EDF" unicode="&#x1edf;" horiz-adv-x="721" 
d="M247 607q42 0 63.5 10t21.5 34q0 18 -14 26.5t-46 8.5q-13 0 -33 -3.5t-29 -7.5v75q20 6 50.5 10.5t58.5 4.5q73 0 111 -28t38 -75q0 -37 -23.5 -63t-65.5 -35v-29h-132v72zM168.5 16.5q-65.5 31.5 -101 89t-35.5 134.5q0 75 35.5 133t101 90t152.5 32q115 0 193 -57
q42 4 60 25t18 60v35h122v-44q0 -62 -33 -108t-92 -63q20 -48 20 -103q0 -77 -35.5 -134.5t-100.5 -89t-152 -31.5t-152.5 31.5zM418 140.5q36 37.5 36 99.5q0 64 -35.5 100.5t-97.5 36.5t-98 -36.5t-36 -100.5q0 -62 36.5 -99.5t97.5 -37.5t97 37.5z" />
    <glyph glyph-name="uni1EE0" unicode="&#x1ee0;" horiz-adv-x="884" 
d="M219 857q33 43 103 43q22 0 43.5 -6t55.5 -19q29 -12 50.5 -18.5t43.5 -6.5q63 0 102 50v-115q-33 -42 -102 -42q-25 0 -48.5 6.5t-54.5 19.5q-31 12 -50 18t-40 6q-61 0 -103 -51v115zM215.5 31q-85.5 46 -134.5 128.5t-49 189.5t49 190t134.5 129t190.5 46
q72 0 136 -22.5t114 -64.5q50 1 69 20t19 65v35h132v-44q0 -68 -36 -117.5t-101 -64.5q39 -78 39 -172q0 -107 -49 -189.5t-133.5 -128.5t-189.5 -46t-190.5 46zM512.5 157.5q48.5 26.5 76.5 76t28 115.5q0 65 -28 114.5t-76 76t-107 26.5q-60 0 -108.5 -26.5t-76.5 -76
t-28 -114.5q0 -66 28.5 -115.5t77 -76t107.5 -26.5q58 0 106.5 26.5z" />
    <glyph glyph-name="uni1EE1" unicode="&#x1ee1;" horiz-adv-x="721" 
d="M123 650q33 43 103 43q22 0 43.5 -6t55.5 -19q29 -12 50.5 -18.5t43.5 -6.5q63 0 102 50v-115q-33 -42 -102 -42q-25 0 -48.5 6.5t-54.5 19.5q-31 12 -50 18t-40 6q-61 0 -103 -51v115zM168.5 16.5q-65.5 31.5 -101 89t-35.5 134.5q0 75 35.5 133t101 90t152.5 32
q115 0 193 -57q42 4 60 25t18 60v35h122v-44q0 -62 -33 -108t-92 -63q20 -48 20 -103q0 -77 -35.5 -134.5t-100.5 -89t-152 -31.5t-152.5 31.5zM418 140.5q36 37.5 36 99.5q0 64 -35.5 100.5t-97.5 36.5t-98 -36.5t-36 -100.5q0 -62 36.5 -99.5t97.5 -37.5t97 37.5z" />
    <glyph glyph-name="uni1EE2" unicode="&#x1ee2;" horiz-adv-x="884" 
d="M215.5 31q-85.5 46 -134.5 128.5t-49 189.5t49 190t134.5 129t190.5 46q72 0 136 -22.5t114 -64.5q50 1 69 20t19 65v35h132v-44q0 -68 -36 -117.5t-101 -64.5q39 -78 39 -172q0 -107 -49 -189.5t-133.5 -128.5t-189.5 -46t-190.5 46zM512.5 157.5q48.5 26.5 76.5 76
t28 115.5q0 65 -28 114.5t-76 76t-107 26.5q-60 0 -108.5 -26.5t-76.5 -76t-28 -114.5q0 -66 28.5 -115.5t77 -76t107.5 -26.5q58 0 106.5 26.5zM357.5 -169q-21.5 21 -21.5 51t21.5 51t51.5 21q29 0 50 -21t21 -51t-21 -51t-50 -21q-30 0 -51.5 21z" />
    <glyph glyph-name="uni1EE3" unicode="&#x1ee3;" horiz-adv-x="721" 
d="M168.5 16.5q-65.5 31.5 -101 89t-35.5 134.5q0 75 35.5 133t101 90t152.5 32q115 0 193 -57q42 4 60 25t18 60v35h122v-44q0 -62 -33 -108t-92 -63q20 -48 20 -103q0 -77 -35.5 -134.5t-100.5 -89t-152 -31.5t-152.5 31.5zM418 140.5q36 37.5 36 99.5q0 64 -35.5 100.5
t-97.5 36.5t-98 -36.5t-36 -100.5q0 -62 36.5 -99.5t97.5 -37.5t97 37.5zM272.5 -169q-21.5 21 -21.5 51t21.5 51t51.5 21q29 0 50 -21t21 -51t-21 -51t-50 -21q-30 0 -51.5 21z" />
    <glyph glyph-name="uni1EE4" unicode="&#x1ee4;" horiz-adv-x="711" 
d="M125 65.5q-78 80.5 -78 216.5v417h152v-419q0 -76 42 -116t115 -40q72 0 113.5 40t41.5 116v419h152v-417q0 -136 -77 -216.5t-230 -80.5t-231 80.5zM304.5 -169q-21.5 21 -21.5 51t21.5 51t51.5 21q29 0 50 -21t21 -51t-21 -51t-50 -21q-30 0 -51.5 21z" />
    <glyph glyph-name="uni1EE5" unicode="&#x1ee5;" horiz-adv-x="615" 
d="M96 38.5q-49 53.5 -49 142.5v299h151v-283q0 -94 87 -94q38 0 71 18t55 54v305h151v-480h-146v58q-32 -37 -77.5 -55t-95.5 -18q-98 0 -147 53.5zM256.5 -169q-21.5 21 -21.5 51t21.5 51t51.5 21q29 0 50 -21t21 -51t-21 -51t-50 -21q-30 0 -51.5 21z" />
    <glyph glyph-name="uni1EE6" unicode="&#x1ee6;" horiz-adv-x="711" 
d="M286 814q42 0 63.5 10t21.5 34q0 18 -14 26.5t-46 8.5q-13 0 -33 -3.5t-29 -7.5v75q20 6 50.5 10.5t58.5 4.5q73 0 111 -28t38 -75q0 -37 -23.5 -63t-65.5 -35v-29h-132v72zM125 65.5q-78 80.5 -78 216.5v417h152v-419q0 -76 42 -116t115 -40q72 0 113.5 40t41.5 116v419
h152v-417q0 -136 -77 -216.5t-230 -80.5t-231 80.5z" />
    <glyph glyph-name="uni1EE7" unicode="&#x1ee7;" horiz-adv-x="615" 
d="M235 607q42 0 63.5 10t21.5 34q0 18 -14 26.5t-46 8.5q-13 0 -33 -3.5t-29 -7.5v75q20 6 51 10.5t58 4.5q73 0 111 -28t38 -75q0 -37 -23.5 -63t-65.5 -35v-29h-132v72zM96 38.5q-49 53.5 -49 142.5v299h151v-283q0 -94 87 -94q38 0 71 18t55 54v305h151v-480h-146v58
q-32 -37 -77.5 -55t-95.5 -18q-98 0 -147 53.5z" />
    <glyph glyph-name="uni1EE8" unicode="&#x1ee8;" horiz-adv-x="884" 
d="M351 918h159l-89 -176h-139zM125 65.5q-78 80.5 -78 216.5v417h159v-416q0 -77 39 -115t111 -38q71 0 109.5 38t38.5 115v416h160v-71q47 0 63.5 18.5t16.5 65.5v35h133v-44q0 -84 -52 -135t-161 -52v-234q0 -136 -77.5 -216.5t-230.5 -80.5t-231 80.5z" />
    <glyph glyph-name="uni1EE9" unicode="&#x1ee9;" horiz-adv-x="769" 
d="M288 711h159l-89 -176h-139zM96 38.5q-49 53.5 -49 142.5v299h151v-283q0 -94 87 -94q38 0 71 18t55 54v305h151v-42q42 1 60 21.5t18 61.5v37h122v-44q0 -80 -50 -129.5t-150 -50.5v-334h-146v58q-32 -37 -77.5 -55t-95.5 -18q-98 0 -147 53.5z" />
    <glyph glyph-name="uni1EEA" unicode="&#x1eea;" horiz-adv-x="884" 
d="M207 918h159l69 -176h-140zM125 65.5q-78 80.5 -78 216.5v417h159v-416q0 -77 39 -115t111 -38q71 0 109.5 38t38.5 115v416h160v-71q47 0 63.5 18.5t16.5 65.5v35h133v-44q0 -84 -52 -135t-161 -52v-234q0 -136 -77.5 -216.5t-230.5 -80.5t-231 80.5z" />
    <glyph glyph-name="uni1EEB" unicode="&#x1eeb;" horiz-adv-x="769" 
d="M148 711h159l69 -176h-140zM96 38.5q-49 53.5 -49 142.5v299h151v-283q0 -94 87 -94q38 0 71 18t55 54v305h151v-42q42 1 60 21.5t18 61.5v37h122v-44q0 -80 -50 -129.5t-150 -50.5v-334h-146v58q-32 -37 -77.5 -55t-95.5 -18q-98 0 -147 53.5z" />
    <glyph glyph-name="uni1EEC" unicode="&#x1eec;" horiz-adv-x="884" 
d="M286 814q42 0 63.5 10t21.5 34q0 18 -14 26.5t-46 8.5q-13 0 -33 -3.5t-29 -7.5v75q20 6 50.5 10.5t58.5 4.5q73 0 111 -28t38 -75q0 -37 -23.5 -63t-65.5 -35v-29h-132v72zM125 65.5q-78 80.5 -78 216.5v417h159v-416q0 -77 39 -115t111 -38q71 0 109.5 38t38.5 115v416
h160v-71q47 0 63.5 18.5t16.5 65.5v35h133v-44q0 -84 -52 -135t-161 -52v-234q0 -136 -77.5 -216.5t-230.5 -80.5t-231 80.5z" />
    <glyph glyph-name="uni1EED" unicode="&#x1eed;" horiz-adv-x="769" 
d="M225 607q42 0 63.5 10t21.5 34q0 18 -14 26.5t-46 8.5q-13 0 -33 -3.5t-29 -7.5v75q20 6 51 10.5t58 4.5q73 0 111 -28t38 -75q0 -37 -23.5 -63t-65.5 -35v-29h-132v72zM96 38.5q-49 53.5 -49 142.5v299h151v-283q0 -94 87 -94q38 0 71 18t55 54v305h151v-42
q42 1 60 21.5t18 61.5v37h122v-44q0 -80 -50 -129.5t-150 -50.5v-334h-146v58q-32 -37 -77.5 -55t-95.5 -18q-98 0 -147 53.5z" />
    <glyph glyph-name="uni1EEE" unicode="&#x1eee;" horiz-adv-x="884" 
d="M171 857q33 43 103 43q22 0 43.5 -6t55.5 -19q29 -12 50.5 -18.5t43.5 -6.5q63 0 102 50v-115q-33 -42 -102 -42q-25 0 -48.5 6.5t-54.5 19.5q-31 12 -50 18t-40 6q-61 0 -103 -51v115zM125 65.5q-78 80.5 -78 216.5v417h159v-416q0 -77 39 -115t111 -38q71 0 109.5 38
t38.5 115v416h160v-71q47 0 63.5 18.5t16.5 65.5v35h133v-44q0 -84 -52 -135t-161 -52v-234q0 -136 -77.5 -216.5t-230.5 -80.5t-231 80.5z" />
    <glyph glyph-name="uni1EEF" unicode="&#x1eef;" horiz-adv-x="769" 
d="M103 650q33 43 103 43q22 0 43.5 -6t55.5 -19q29 -12 50.5 -18.5t43.5 -6.5q63 0 102 50v-115q-33 -42 -102 -42q-25 0 -48.5 6.5t-54.5 19.5q-31 12 -50 18t-40 6q-61 0 -103 -51v115zM96 38.5q-49 53.5 -49 142.5v299h151v-283q0 -94 87 -94q38 0 71 18t55 54v305h151
v-42q42 1 60 21.5t18 61.5v37h122v-44q0 -80 -50 -129.5t-150 -50.5v-334h-146v58q-32 -37 -77.5 -55t-95.5 -18q-98 0 -147 53.5z" />
    <glyph glyph-name="uni1EF0" unicode="&#x1ef0;" horiz-adv-x="884" 
d="M125 65.5q-78 80.5 -78 216.5v417h159v-416q0 -77 39 -115t111 -38q71 0 109.5 38t38.5 115v416h160v-71q47 0 63.5 18.5t16.5 65.5v35h133v-44q0 -84 -52 -135t-161 -52v-234q0 -136 -77.5 -216.5t-230.5 -80.5t-231 80.5zM308.5 -169q-21.5 21 -21.5 51t21.5 51
t51.5 21q29 0 50 -21t21 -51t-21 -51t-50 -21q-30 0 -51.5 21z" />
    <glyph glyph-name="uni1EF1" unicode="&#x1ef1;" horiz-adv-x="769" 
d="M96 38.5q-49 53.5 -49 142.5v299h151v-283q0 -94 87 -94q38 0 71 18t55 54v305h151v-42q42 1 60 21.5t18 61.5v37h122v-44q0 -80 -50 -129.5t-150 -50.5v-334h-146v58q-32 -37 -77.5 -55t-95.5 -18q-98 0 -147 53.5zM246.5 -169q-21.5 21 -21.5 51t21.5 51t51.5 21
q29 0 50 -21t21 -51t-21 -51t-50 -21q-30 0 -51.5 21z" />
    <glyph glyph-name="Ygrave" unicode="&#x1ef2;" horiz-adv-x="738" 
d="M221 918h159l69 -176h-140zM291 266l-256 433h162l169 -291l175 291h161l-262 -433v-266h-149v266z" />
    <glyph glyph-name="ygrave" unicode="&#x1ef3;" horiz-adv-x="612" 
d="M171 711h159l69 -176h-140zM122.5 -194q-31.5 4 -47.5 11v113q29 -11 64 -11q36 0 54.5 16t30.5 50l16 41l-208 454h152l136 -331l129 331h151l-204 -513q-34 -85 -84 -125t-128 -40q-30 0 -61.5 4z" />
    <glyph glyph-name="uni1EF4" unicode="&#x1ef4;" horiz-adv-x="738" 
d="M291 266l-256 433h162l169 -291l175 291h161l-262 -433v-266h-149v266zM316.5 -169q-21.5 21 -21.5 51t21.5 51t51.5 21q29 0 50 -21t21 -51t-21 -51t-50 -21q-30 0 -51.5 21z" />
    <glyph glyph-name="uni1EF5" unicode="&#x1ef5;" horiz-adv-x="612" 
d="M122.5 -194q-31.5 4 -47.5 11v113q29 -11 64 -11q36 0 54.5 16t30.5 50l16 41l-208 454h152l136 -331l129 331h151l-204 -513q-34 -85 -84 -125t-128 -40q-30 0 -61.5 4zM440.5 -163q-21.5 21 -21.5 51t21.5 51t51.5 21q29 0 50 -21t21 -51t-21 -51t-50 -21
q-30 0 -51.5 21z" />
    <glyph glyph-name="uni1EF6" unicode="&#x1ef6;" horiz-adv-x="738" 
d="M303 814q42 0 63.5 10t21.5 34q0 18 -14 26.5t-46 8.5q-13 0 -33 -3.5t-29 -7.5v75q20 6 50.5 10.5t58.5 4.5q73 0 111 -28t38 -75q0 -37 -23.5 -63t-65.5 -35v-29h-132v72zM291 266l-256 433h162l169 -291l175 291h161l-262 -433v-266h-149v266z" />
    <glyph glyph-name="uni1EF7" unicode="&#x1ef7;" horiz-adv-x="612" 
d="M248 607q42 0 63.5 10t21.5 34q0 18 -14 26.5t-46 8.5q-13 0 -33 -3.5t-29 -7.5v75q20 6 51 10.5t58 4.5q73 0 111 -28t38 -75q0 -37 -23.5 -63t-65.5 -35v-29h-132v72zM122.5 -194q-31.5 4 -47.5 11v113q29 -11 64 -11q36 0 54.5 16t30.5 50l16 41l-208 454h152
l136 -331l129 331h151l-204 -513q-34 -85 -84 -125t-128 -40q-30 0 -61.5 4z" />
    <glyph glyph-name="uni1EF8" unicode="&#x1ef8;" horiz-adv-x="738" 
d="M167 857q33 43 103 43q22 0 43.5 -6t55.5 -19q29 -12 50.5 -18.5t43.5 -6.5q63 0 102 50v-115q-33 -42 -102 -42q-25 0 -48.5 6.5t-54.5 19.5q-31 12 -50 18t-40 6q-61 0 -103 -51v115zM291 266l-256 433h162l169 -291l175 291h161l-262 -433v-266h-149v266z" />
    <glyph glyph-name="uni1EF9" unicode="&#x1ef9;" horiz-adv-x="612" 
d="M128 650q33 43 103 43q22 0 43.5 -6t55.5 -19q29 -12 50.5 -18.5t43.5 -6.5q63 0 102 50v-115q-33 -42 -102 -42q-25 0 -48.5 6.5t-54.5 19.5q-31 12 -50 18t-40 6q-61 0 -103 -51v115zM122.5 -194q-31.5 4 -47.5 11v113q29 -11 64 -11q36 0 54.5 16t30.5 50l16 41
l-208 454h152l136 -331l129 331h151l-204 -513q-34 -85 -84 -125t-128 -40q-30 0 -61.5 4z" />
    <glyph glyph-name="uni2007" unicode="&#x2007;" 
 />
    <glyph glyph-name="uni2010" unicode="&#x2010;" horiz-adv-x="436" 
d="M32 356h372v-120h-372v120z" />
    <glyph glyph-name="figuredash" unicode="&#x2012;" horiz-adv-x="689" 
d="M32 356h625v-120h-625v120z" />
    <glyph glyph-name="endash" unicode="&#x2013;" horiz-adv-x="656" 
d="M32 361h592v-120h-592v120z" />
    <glyph glyph-name="emdash" unicode="&#x2014;" horiz-adv-x="795" 
d="M32 361h730v-120h-730v120z" />
    <glyph glyph-name="uni2015" unicode="&#x2015;" horiz-adv-x="991" 
d="M32 356h927v-120h-927v120z" />
    <glyph glyph-name="quoteleft" unicode="&#x2018;" horiz-adv-x="271" 
d="M114 714h125l-65 -198h-142z" />
    <glyph glyph-name="quoteright" unicode="&#x2019;" horiz-adv-x="275" 
d="M97 714h145l-81 -198h-129z" />
    <glyph glyph-name="quotesinglbase" unicode="&#x201a;" horiz-adv-x="275" 
d="M97 71h145l-81 -198h-129z" />
    <glyph glyph-name="quotedblleft" unicode="&#x201c;" horiz-adv-x="453" 
d="M114 714h123l-65 -198h-140zM298 714h123l-65 -198h-140z" />
    <glyph glyph-name="quotedblright" unicode="&#x201d;" horiz-adv-x="453" 
d="M97 714h140l-81 -198h-124zM281 714h140l-82 -198h-123z" />
    <glyph glyph-name="quotedblbase" unicode="&#x201e;" horiz-adv-x="453" 
d="M97 71h140l-81 -198h-124zM281 71h140l-82 -198h-123z" />
    <glyph glyph-name="dagger" unicode="&#x2020;" horiz-adv-x="539" 
d="M194 402h-162v127h162v170h152v-170h161v-127h-161v-472h-152v472z" />
    <glyph glyph-name="daggerdbl" unicode="&#x2021;" horiz-adv-x="535" 
d="M192 148h-160v127h160v149h-160v128h160v147h151v-147h160v-128h-160v-149h160v-127h-160v-148h-151v148z" />
    <glyph glyph-name="bullet" unicode="&#x2022;" horiz-adv-x="261" 
d="M61 228q-29 29 -29 70t29 69.5t70 28.5t69.5 -28.5t28.5 -69.5t-28.5 -70t-69.5 -29t-70 29z" />
    <glyph glyph-name="ellipsis" unicode="&#x2026;" horiz-adv-x="581" 
d="M48.5 16q-16.5 16 -16.5 40t17 41t40 17q24 0 41 -17t17 -41t-17 -40t-41 -16t-40.5 16zM249.5 16q-16.5 16 -16.5 40t16.5 41t40.5 17t41 -17t17 -41t-17 -40t-41 -16t-40.5 16zM450.5 16q-16.5 16 -16.5 40t16.5 41t40.5 17q23 0 40 -17t17 -41t-16.5 -40t-40.5 -16
t-40.5 16z" />
    <glyph glyph-name="perthousand" unicode="&#x2030;" horiz-adv-x="1292" 
d="M123 371.5q-42 24.5 -66.5 66.5t-24.5 92t24.5 92.5t66.5 67t92 24.5t92.5 -24.5t67 -67t24.5 -92.5t-24.5 -92t-67 -66.5t-92.5 -24.5t-92 24.5zM563 699h151l-387 -699h-151zM274.5 468.5q23.5 23.5 23.5 58.5q0 36 -23.5 60t-59.5 24q-35 0 -58.5 -24t-23.5 -60
q0 -34 24 -58t58 -24q36 0 59.5 23.5zM580 9.5q-42 24.5 -66.5 66.5t-24.5 92t24.5 92.5t66.5 67t92 24.5t92.5 -24.5t67 -67t24.5 -92.5t-24.5 -92t-67 -66.5t-92.5 -24.5t-92 24.5zM983 9.5q-42 24.5 -66.5 66.5t-24.5 92t24.5 92.5t66.5 67t92 24.5t92.5 -24.5t67 -67
t24.5 -92.5t-24.5 -92t-67 -66.5t-92.5 -24.5t-92 24.5zM730.5 106.5q23.5 23.5 23.5 58.5q0 36 -23.5 60t-59.5 24q-35 0 -58.5 -24t-23.5 -60q0 -34 24 -58t58 -24q36 0 59.5 23.5zM1133.5 106.5q23.5 23.5 23.5 58.5q0 36 -23.5 60t-59.5 24q-35 0 -58.5 -24t-23.5 -60
q0 -34 24 -58t58 -24q36 0 59.5 23.5z" />
    <glyph glyph-name="minute" unicode="&#x2032;" horiz-adv-x="181" 
d="M32 699h116v-199h-116v199z" />
    <glyph glyph-name="second" unicode="&#x2033;" horiz-adv-x="359" 
d="M32 699h116v-199h-116v199zM210 699h116v-199h-116v199z" />
    <glyph glyph-name="guilsinglleft" unicode="&#x2039;" horiz-adv-x="387" 
d="M32 307v35l242 214l81 -89l-165 -143l165 -141l-81 -90z" />
    <glyph glyph-name="guilsinglright" unicode="&#x203a;" horiz-adv-x="387" 
d="M32 183l165 141l-165 143l81 89l242 -214v-35l-242 -214z" />
    <glyph glyph-name="fraction" unicode="&#x2044;" horiz-adv-x="244" 
d="M237 714h155l-385 -729h-155z" />
    <glyph glyph-name="uni2070" unicode="&#x2070;" horiz-adv-x="404" 
d="M77.5 405.5q-45.5 46.5 -45.5 128.5q0 81 45.5 128t124.5 47t124 -47t45 -128q0 -82 -45 -128.5t-124 -46.5t-124.5 46.5zM252.5 464q18.5 23 18.5 69q0 47 -18 70t-51 23t-51.5 -23t-18.5 -70q0 -46 18.5 -69t51.5 -23q32 0 50.5 23z" />
    <glyph glyph-name="uni2074" unicode="&#x2074;" horiz-adv-x="331" 
d="M162 433h-150v72l146 194h115v-189h45v-77h-45v-63h-111v63zM186 510v96l-73 -96h73z" />
    <glyph glyph-name="uni2075" unicode="&#x2075;" horiz-adv-x="345" 
d="M84 366.5q-32 6.5 -52 16.5v82q21 -12 47.5 -18.5t50.5 -6.5q36 0 54 12t18 30q0 42 -69 42q-37 0 -68 -11l-28 17l13 169h240v-79h-148l-2 -36q29 6 57 6q56 0 85.5 -28t29.5 -80q0 -56 -45 -89t-120 -33q-31 0 -63 6.5z" />
    <glyph glyph-name="uni2076" unicode="&#x2076;" horiz-adv-x="366" 
d="M73 401q-41 41 -41 113q0 93 49.5 144t131.5 51q19 0 41 -2.5t32 -6.5v-72q-18 9 -62 9q-77 0 -90 -63q13 10 33.5 16t43.5 6q59 0 90.5 -30.5t31.5 -85.5q0 -53 -37.5 -86.5t-109.5 -33.5t-113 41zM222.5 440q13.5 14 13.5 37q0 24 -13.5 38t-37.5 14q-23 0 -37 -14.5
t-14 -37.5t14 -37t37 -14q24 0 37.5 14z" />
    <glyph glyph-name="uni2077" unicode="&#x2077;" horiz-adv-x="315" 
d="M171 614h-149v85h270v-59l-123 -270h-109z" />
    <glyph glyph-name="uni2078" unicode="&#x2078;" horiz-adv-x="369" 
d="M71.5 386.5q-39.5 26.5 -39.5 74.5q0 29 15 50.5t39 28.5q-42 23 -42 72q0 47 37.5 72t103.5 25q65 0 102.5 -25t37.5 -72q0 -49 -42 -72q24 -7 39 -28.5t15 -50.5q0 -48 -39.5 -74.5t-112.5 -26.5q-74 0 -113.5 26.5zM215 577.5q11 10.5 11 27.5q0 16 -12 27t-29 11
q-18 0 -30 -11t-12 -27q0 -17 11.5 -27.5t30.5 -10.5t30 10.5zM219.5 437q13.5 12 13.5 31q0 20 -13 32t-35 12t-35.5 -12t-13.5 -32q0 -19 13.5 -31t35.5 -12q21 0 34.5 12z" />
    <glyph glyph-name="uni2079" unicode="&#x2079;" horiz-adv-x="366" 
d="M110.5 362q-21.5 2 -31.5 6v72q18 -9 63 -9q75 0 90 64q-13 -11 -33 -17t-44 -6q-59 0 -91 30.5t-32 85.5q0 53 38 87t110 34q71 0 112 -41t41 -114q0 -93 -49.5 -143.5t-130.5 -50.5q-21 0 -42.5 2zM217.5 553.5q14.5 14.5 14.5 37.5t-14 37t-37 14q-24 0 -37.5 -14
t-13.5 -37q0 -24 13.5 -38t37.5 -14q22 0 36.5 14.5z" />
    <glyph glyph-name="uni207D" unicode="&#x207d;" horiz-adv-x="237" 
d="M47 438q-15 45 -15 96t15 96t42 79h115q-58 -75 -58 -175q0 -101 58 -174h-115q-27 33 -42 78z" />
    <glyph glyph-name="uni207E" unicode="&#x207e;" horiz-adv-x="237" 
d="M91 534q0 49 -15 93.5t-44 81.5h115q28 -34 42.5 -78.5t14.5 -96.5t-14.5 -97t-42.5 -77h-115q59 75 59 174z" />
    <glyph glyph-name="uni207F" unicode="&#x207f;" horiz-adv-x="445" 
d="M37 699h108v-38q24 26 56.5 39.5t67.5 13.5q73 0 108 -36.5t35 -99.5v-218h-111v200q0 32 -15 49t-49 17q-57 0 -88 -51v-215h-112v339z" />
    <glyph glyph-name="uni2080" unicode="&#x2080;" horiz-adv-x="404" 
d="M77.5 -123.5q-45.5 46.5 -45.5 127.5q0 82 45.5 128.5t124.5 46.5t124 -46.5t45 -128.5q0 -81 -45 -127.5t-124 -46.5t-124.5 46.5zM253 -65.5q18 22.5 18 69.5t-18 70t-51 23t-51.5 -23t-18.5 -70t18.5 -69.5t51.5 -22.5t51 22.5z" />
    <glyph glyph-name="uni2081" unicode="&#x2081;" horiz-adv-x="233" 
d="M110 59l-78 -56v100l89 66h100v-329h-111v219z" />
    <glyph glyph-name="uni2082" unicode="&#x2082;" horiz-adv-x="340" 
d="M32 -98q21 16 23 17q75 58 105.5 86t30.5 51q0 17 -11 24.5t-33 7.5q-24 0 -53.5 -9.5t-48.5 -22.5v92q20 13 54.5 21.5t65.5 8.5q68 0 103 -31.5t35 -77.5q0 -34 -17 -57.5t-59 -56.5l-44 -36h125v-80h-276v63z" />
    <glyph glyph-name="uni2083" unicode="&#x2083;" horiz-adv-x="345" 
d="M32 -150v77q22 -11 49.5 -16.5t51.5 -5.5q30 0 46 7.5t16 26.5q0 17 -14 24.5t-48 7.5h-47v69h46q54 0 54 30q0 15 -15 23.5t-42 8.5q-49 0 -90 -26v78q22 12 55 18.5t70 6.5q65 0 102 -26.5t37 -71.5q0 -51 -45 -76q54 -17 54 -75q0 -46 -39.5 -73t-111.5 -27
q-83 0 -129 20z" />
    <glyph glyph-name="uni2084" unicode="&#x2084;" horiz-adv-x="331" 
d="M162 -97h-150v72l146 194h115v-189h45v-77h-45v-63h-111v63zM186 -20v96l-73 -96h73z" />
    <glyph glyph-name="uni2085" unicode="&#x2085;" horiz-adv-x="345" 
d="M84 -163.5q-32 6.5 -52 16.5v83q20 -12 46.5 -18.5t51.5 -6.5q36 0 53.5 12t17.5 30q0 21 -16.5 30.5t-51.5 9.5q-37 0 -68 -11l-28 17l13 170h240v-79h-148l-2 -36q29 6 57 6q56 0 86 -28t30 -80q0 -56 -45.5 -89t-120.5 -33q-31 0 -63 6.5z" />
    <glyph glyph-name="uni2086" unicode="&#x2086;" horiz-adv-x="366" 
d="M73 -129q-41 41 -41 113q0 93 49.5 144t131.5 51q19 0 41 -2.5t32 -6.5v-72q-18 9 -62 9q-77 0 -90 -63q13 10 33.5 16t43.5 6q59 0 90.5 -30.5t31.5 -85.5q0 -53 -37.5 -86.5t-109.5 -33.5t-113 41zM222.5 -90q13.5 14 13.5 37q0 24 -13.5 38t-37.5 14q-23 0 -37 -14.5
t-14 -37.5t14 -37t37 -14q24 0 37.5 14z" />
    <glyph glyph-name="uni2087" unicode="&#x2087;" horiz-adv-x="315" 
d="M171 84h-149v85h270v-59l-123 -270h-109z" />
    <glyph glyph-name="uni2088" unicode="&#x2088;" horiz-adv-x="369" 
d="M71.5 -143.5q-39.5 26.5 -39.5 74.5q0 29 15 50.5t39 28.5q-42 23 -42 72q0 47 37.5 72t103.5 25q65 0 102.5 -25t37.5 -72q0 -49 -42 -72q24 -7 39 -28.5t15 -50.5q0 -48 -39.5 -74.5t-112.5 -26.5q-74 0 -113.5 26.5zM215 47.5q11 10.5 11 27.5q0 16 -12 27t-29 11
q-18 0 -30 -11t-12 -27q0 -17 11.5 -27.5t30.5 -10.5t30 10.5zM219.5 -93q13.5 12 13.5 31q0 20 -13 32t-35 12t-35.5 -12t-13.5 -32q0 -19 13.5 -31t35.5 -12q21 0 34.5 12z" />
    </font>
</defs>
</svg>
